<?xml version="1.0" standalone="no"?>
<!DOCTYPE svg PUBLIC "-//W3C//DTD SVG 1.1//EN" "http://www.w3.org/Graphics/SVG/1.1/DTD/svg11.dtd" >
<svg xmlns="http://www.w3.org/2000/svg" xmlns:xlink="http://www.w3.org/1999/xlink" version="1.1">
<metadata>
Created by FontForge 20190801 at Fri Mar 31 09:56:46 2023
 By www-data
Copyright 2016 The Nunito Sans Project Authors (https://github.com/Fonthausen/NunitoSans)
</metadata>
<defs>
<font id="NunitoSans7pt-Light" horiz-adv-x="0" >
  <font-face 
    font-family="Nunito Sans 7pt Light"
    font-weight="300"
    font-stretch="normal"
    units-per-em="1000"
    panose-1="0 0 0 0 0 0 0 0 0 0"
    ascent="800"
    descent="-200"
    x-height="494"
    cap-height="705"
    bbox="-252 -292 1327 1045"
    underline-thickness="32"
    underline-position="-97"
    unicode-range="U+000D-FB02"
  />
<missing-glyph horiz-adv-x="500" 
d="M50 -180v885h400v-885h-400zM100 -130h300v785h-300v-785z" />
    <glyph glyph-name="fi" unicode="fi" horiz-adv-x="628" 
d="M127 0v436h-104v58h122l-18 -24v39q0 92 53 141.5t151 55.5l45 2l5 -60l-52 -3q-35 -2 -65.5 -14t-48.5 -40t-18 -78v-33l-12 14h348v-494h-70v436h-266v-436h-70zM454 622v82h86v-82h-86z" />
    <glyph glyph-name="fl" unicode="fl" horiz-adv-x="711" 
d="M127 0v436h-104v58h121l-17 -17v31q0 93 53 142.5t152 55.5l49 2l6 -60l-58 -3q-35 -2 -65 -14t-48.5 -39.5t-18.5 -78.5v-29l-12 10h177v-58h-165v-436h-70zM629 -8q-64 0 -101 39.5t-37 109.5v564h70v-555q0 -30 9.5 -52.5t27 -34t41.5 -11.5q15 0 29.5 2t29.5 6l1 -59
q-16 -4 -32.5 -6.5t-37.5 -2.5z" />
    <glyph glyph-name=".notdef" horiz-adv-x="500" 
d="M50 -180v885h400v-885h-400zM100 -130h300v785h-300v-785z" />
    <glyph glyph-name="A" unicode="A" horiz-adv-x="764" 
d="M43 0l307 705h65l306 -705h-74l-87 202l39 -21h-433l38 21l-87 -202h-74zM380 619l-166 -390l-25 15h387l-27 -15l-165 390h-4z" />
    <glyph glyph-name="Aacute" unicode="&#xc1;" horiz-adv-x="764" 
d="M43 0l307 705h65l306 -705h-74l-87 202l39 -21h-433l38 21l-87 -202h-74zM380 619l-166 -390l-25 15h387l-27 -15l-165 390h-4zM353 765l118 171h89l-146 -171h-61z" />
    <glyph glyph-name="Abreve" unicode="&#x102;" horiz-adv-x="764" 
d="M43 0l307 705h65l306 -705h-74l-87 202l39 -21h-433l38 21l-87 -202h-74zM380 619l-166 -390l-25 15h387l-27 -15l-165 390h-4zM383 760q-70 0 -116 45.5t-52 124.5l51 7q5 -56 35 -89t82 -33q54 0 83.5 34t33.5 88l52 -7q-6 -79 -53 -124.5t-116 -45.5z" />
    <glyph glyph-name="uni1EAE" unicode="&#x1eae;" horiz-adv-x="764" 
d="M43 0l307 705h65l306 -705h-74l-87 202l39 -21h-433l38 21l-87 -202h-74zM380 619l-166 -390l-25 15h387l-27 -15l-165 390h-4zM383 766q-68 0 -110 41t-47 111l49 5q5 -51 33.5 -78t74.5 -27q47 0 75.5 26.5t33.5 78.5l49 -5q-5 -70 -47 -111t-111 -41zM350 884l90 144
h81l-118 -144h-53z" />
    <glyph glyph-name="uni1EB6" unicode="&#x1eb6;" horiz-adv-x="764" 
d="M43 0l307 705h65l306 -705h-74l-87 202l39 -21h-433l38 21l-87 -202h-74zM380 619l-166 -390l-25 15h387l-27 -15l-165 390h-4zM341 -184v83h84v-83h-84zM383 760q-70 0 -116 45.5t-52 124.5l51 7q5 -56 35 -89t82 -33q54 0 83.5 34t33.5 88l52 -7q-6 -79 -53 -124.5
t-116 -45.5z" />
    <glyph glyph-name="uni1EB0" unicode="&#x1eb0;" horiz-adv-x="764" 
d="M43 0l307 705h65l306 -705h-74l-87 202l39 -21h-433l38 21l-87 -202h-74zM380 619l-166 -390l-25 15h387l-27 -15l-165 390h-4zM383 766q-68 0 -110 41t-47 111l49 5q5 -51 33.5 -78t74.5 -27q47 0 75.5 26.5t33.5 78.5l49 -5q-5 -70 -47 -111t-111 -41zM364 884
l-112 144h80l86 -144h-54z" />
    <glyph glyph-name="uni1EB2" unicode="&#x1eb2;" horiz-adv-x="764" 
d="M43 0l307 705h65l306 -705h-74l-87 202l39 -21h-433l38 21l-87 -202h-74zM380 619l-166 -390l-25 15h387l-27 -15l-165 390h-4zM383 766q-68 0 -110 41t-47 111l49 5q5 -51 33.5 -78t74.5 -27q47 0 75.5 26.5t33.5 78.5l49 -5q-5 -69 -47 -110.5t-111 -41.5zM358 883
q0 22 9 34.5t21.5 21t22 16t9.5 17.5q0 12 -13.5 16.5t-35.5 4.5q-11 0 -26.5 -2.5t-34.5 -9.5l-12 39q17 8 38.5 12t50.5 4q45 0 68.5 -14t23.5 -38q0 -21 -10.5 -32.5t-24.5 -20t-24.5 -19.5t-10.5 -29h-51z" />
    <glyph glyph-name="uni1EB4" unicode="&#x1eb4;" horiz-adv-x="764" 
d="M43 0l307 705h65l306 -705h-74l-87 202l39 -21h-433l38 21l-87 -202h-74zM380 619l-166 -390l-25 15h387l-27 -15l-165 390h-4zM383 766q-61 0 -103 31.5t-54 83.5l48 8q10 -34 39 -53t70 -19q42 0 70.5 19t38.5 53l49 -8q-12 -51 -54 -83t-104 -32zM270 931l-46 2
q3 34 14.5 56.5t31.5 34t47 11.5q23 0 41 -9t36 -21q15 -10 28 -17t25 -7q23 0 34 14t15 42l47 -2q-4 -51 -29 -76.5t-65 -25.5q-22 0 -40 9.5t-36 21.5q-14 9 -27 16t-27 7q-22 0 -33 -13.5t-16 -42.5z" />
    <glyph glyph-name="uni01CD" unicode="&#x1cd;" horiz-adv-x="764" 
d="M43 0l307 705h65l306 -705h-74l-87 202l39 -21h-433l38 21l-87 -202h-74zM380 619l-166 -390l-25 15h387l-27 -15l-165 390h-4zM348 765l-125 171h58l102 -122l103 122h57l-125 -171h-70z" />
    <glyph glyph-name="Acircumflex" unicode="&#xc2;" horiz-adv-x="764" 
d="M43 0l307 705h65l306 -705h-74l-87 202l39 -21h-433l38 21l-87 -202h-74zM380 619l-166 -390l-25 15h387l-27 -15l-165 390h-4zM223 765l125 171h70l125 -171h-58l-102 122l-103 -122h-57z" />
    <glyph glyph-name="uni1EA4" unicode="&#x1ea4;" horiz-adv-x="764" 
d="M43 0l307 705h65l306 -705h-74l-87 202l39 -21h-433l38 21l-87 -202h-74zM380 619l-166 -390l-25 15h387l-27 -15l-165 390h-4zM233 769l115 165h70l115 -165h-55l-95 115l-96 -115h-54zM477 877l82 150h77l-108 -150h-51z" />
    <glyph glyph-name="uni1EAC" unicode="&#x1eac;" horiz-adv-x="764" 
d="M43 0l307 705h65l306 -705h-74l-87 202l39 -21h-433l38 21l-87 -202h-74zM380 619l-166 -390l-25 15h387l-27 -15l-165 390h-4zM341 -184v83h84v-83h-84zM223 765l125 171h70l125 -171h-58l-102 122l-103 -122h-57z" />
    <glyph glyph-name="uni1EA6" unicode="&#x1ea6;" horiz-adv-x="764" 
d="M43 0l307 705h65l306 -705h-74l-87 202l39 -21h-433l38 21l-87 -202h-74zM380 619l-166 -390l-25 15h387l-27 -15l-165 390h-4zM233 769l115 165h70l115 -165h-55l-95 115l-96 -115h-54zM519 877l-107 150h74l83 -150h-50z" />
    <glyph glyph-name="uni1EA8" unicode="&#x1ea8;" horiz-adv-x="764" 
d="M43 0l307 705h65l306 -705h-74l-87 202l39 -21h-433l38 21l-87 -202h-74zM380 619l-166 -390l-25 15h387l-27 -15l-165 390h-4zM233 769l115 158h70l115 -158h-55l-95 112l-96 -112h-54zM483 879q0 22 9.5 35t22 21.5t22 16.5t9.5 18q0 12 -13 16.5t-35 4.5
q-12 0 -27 -2.5t-34 -9.5l-12 38q16 8 37.5 12t50.5 4q44 0 67 -14t23 -37q0 -21 -10.5 -33t-24 -21t-24 -20t-10.5 -29h-51z" />
    <glyph glyph-name="uni1EAA" unicode="&#x1eaa;" horiz-adv-x="764" 
d="M43 0l307 705h65l306 -705h-74l-87 202l39 -21h-433l38 21l-87 -202h-74zM380 619l-166 -390l-25 15h387l-27 -15l-165 390h-4zM233 769l115 132h70l115 -132h-55l-95 88l-96 -88h-54zM270 927l-46 2q5 52 29 78t64 26q23 0 41 -9.5t36 -21.5q15 -10 28 -17t25 -7
q22 0 33.5 12.5t15.5 43.5l47 -3q-4 -49 -28 -75.5t-66 -26.5q-22 0 -40 9.5t-36 20.5q-14 10 -27 17t-27 7q-20 0 -32 -12.5t-17 -43.5z" />
    <glyph glyph-name="uni0200" unicode="&#x200;" horiz-adv-x="764" 
d="M43 0l307 705h65l306 -705h-74l-87 202l39 -21h-433l38 21l-87 -202h-74zM380 619l-166 -390l-25 15h387l-27 -15l-165 390h-4zM422 765l-118 171h80l85 -171h-47zM296 765l-121 171h79l89 -171h-47z" />
    <glyph glyph-name="Adieresis" unicode="&#xc4;" horiz-adv-x="764" 
d="M43 0l307 705h65l306 -705h-74l-87 202l39 -21h-433l38 21l-87 -202h-74zM380 619l-166 -390l-25 15h387l-27 -15l-165 390h-4zM437 809v80h82v-80h-82zM247 809v80h82v-80h-82z" />
    <glyph glyph-name="uni0226" unicode="&#x226;" horiz-adv-x="764" 
d="M43 0l307 705h65l306 -705h-74l-87 202l39 -21h-433l38 21l-87 -202h-74zM380 619l-166 -390l-25 15h387l-27 -15l-165 390h-4zM338 809v87h89v-87h-89z" />
    <glyph glyph-name="uni1EA0" unicode="&#x1ea0;" horiz-adv-x="764" 
d="M43 0l307 705h65l306 -705h-74l-87 202l39 -21h-433l38 21l-87 -202h-74zM380 619l-166 -390l-25 15h387l-27 -15l-165 390h-4zM341 -184v83h84v-83h-84z" />
    <glyph glyph-name="Agrave" unicode="&#xc0;" horiz-adv-x="764" 
d="M43 0l307 705h65l306 -705h-74l-87 202l39 -21h-433l38 21l-87 -202h-74zM380 619l-166 -390l-25 15h387l-27 -15l-165 390h-4zM355 765l-146 171h87l118 -171h-59z" />
    <glyph glyph-name="uni1EA2" unicode="&#x1ea2;" horiz-adv-x="764" 
d="M43 0l307 705h65l306 -705h-74l-87 202l39 -21h-433l38 21l-87 -202h-74zM380 619l-166 -390l-25 15h387l-27 -15l-165 390h-4zM357 765v16q0 20 9.5 33t22 22.5t22.5 18t10 19.5t-9.5 16t-31.5 5q-16 0 -34 -2.5t-37 -9.5l-13 41q18 9 41.5 14t50.5 5q45 0 70 -16
t25 -43q0 -22 -11 -35t-25.5 -22.5t-25.5 -20t-11 -29.5v-12h-53z" />
    <glyph glyph-name="uni0202" unicode="&#x202;" horiz-adv-x="764" 
d="M43 0l307 705h65l306 -705h-74l-87 202l39 -21h-433l38 21l-87 -202h-74zM380 619l-166 -390l-25 15h387l-27 -15l-165 390h-4zM267 760l-52 7q6 79 52 124.5t116 45.5q71 0 117 -46.5t52 -123.5l-52 -7q-4 54 -33.5 87.5t-83.5 33.5q-51 0 -81.5 -32t-34.5 -89z" />
    <glyph glyph-name="Amacron" unicode="&#x100;" horiz-adv-x="764" 
d="M43 0l307 705h65l306 -705h-74l-87 202l39 -21h-433l38 21l-87 -202h-74zM380 619l-166 -390l-25 15h387l-27 -15l-165 390h-4zM220 816v57h326v-57h-326z" />
    <glyph glyph-name="Aogonek" unicode="&#x104;" horiz-adv-x="764" 
d="M43 0l307 705h65l306 -705h-74l-87 202l39 -21h-433l38 21l-87 -202h-74zM380 619l-166 -390l-25 15h387l-27 -15l-165 390h-4zM690 -194q-46 0 -76 26t-30 69q0 39 27 75t71 59l28 -35q-15 -7 -31 -19.5t-26.5 -30.5t-10.5 -39q0 -29 16.5 -41t39.5 -12q12 0 25.5 3
t26.5 9l17 -47q-13 -7 -32.5 -12t-44.5 -5z" />
    <glyph glyph-name="Aring" unicode="&#xc5;" horiz-adv-x="764" 
d="M43 0l307 705h65l306 -705h-74l-87 202l39 -21h-433l38 21l-87 -202h-74zM380 619l-166 -390l-25 15h387l-27 -15l-165 390h-4zM383 758q-34 0 -61 15.5t-42.5 41t-15.5 57.5t15.5 58t42.5 41t61 15t61 -15t42.5 -41t15.5 -58t-15.5 -57.5t-42.5 -41t-61 -15.5zM383 800
q32 0 52.5 20.5t20.5 52.5q0 31 -20.5 51t-52.5 20q-31 0 -52 -20t-21 -51q0 -32 20.5 -52.5t52.5 -20.5z" />
    <glyph glyph-name="Aringacute" unicode="&#x1fa;" horiz-adv-x="764" 
d="M43 0l307 705h65l306 -705h-74l-87 202l39 -21h-433l38 21l-87 -202h-74zM380 619l-166 -390l-25 15h387l-27 -15l-165 390h-4zM383 760q-35 0 -62 15.5t-43 41.5t-16 59q0 32 16 58t43 42t62 16q22 0 40 -6.5t33 -17.5l66 62h79l-112 -97q7 -12 11 -26.5t4 -30.5
q0 -33 -16 -59t-43 -41.5t-62 -15.5zM383 803q32 0 53 20.5t21 52.5t-21 52.5t-53 20.5t-53 -20.5t-21 -52.5t21 -52.5t53 -20.5z" />
    <glyph glyph-name="Atilde" unicode="&#xc3;" horiz-adv-x="764" 
d="M43 0l307 705h65l306 -705h-74l-87 202l39 -21h-433l38 21l-87 -202h-74zM380 619l-166 -390l-25 15h387l-27 -15l-165 390h-4zM226 783l-50 3q6 64 37 98.5t80 34.5q28 0 54 -13t51 -30q22 -14 40.5 -24t35.5 -10q29 0 45 20t23 59l49 -2q-6 -64 -37 -98.5t-80 -34.5
q-28 0 -54 13.5t-51 29.5q-22 15 -41 24.5t-36 9.5q-28 0 -44 -20t-22 -60z" />
    <glyph glyph-name="AE" unicode="&#xc6;" horiz-adv-x="1034" 
d="M3 0l415 705h534v-64h-464l24 37l64 -310l-41 21h397v-64h-386l35 21l67 -316l-38 34h342v-64h-367l-43 205l27 -24h-401l34 24l-121 -205h-78zM447 634l-234 -407l-23 17h359l-11 -18l-86 408h-5z" />
    <glyph glyph-name="AEacute" unicode="&#x1fc;" horiz-adv-x="1034" 
d="M3 0l415 705h534v-64h-464l24 37l64 -310l-41 21h397v-64h-386l35 21l67 -316l-38 34h342v-64h-367l-43 205l27 -24h-401l34 24l-121 -205h-78zM447 634l-234 -407l-23 17h359l-11 -18l-86 408h-5zM476 765l118 171h89l-146 -171h-61z" />
    <glyph glyph-name="B" unicode="B" horiz-adv-x="727" 
d="M113 0v705h285q109 0 168.5 -47t59.5 -138q0 -66 -34 -106t-84 -51v-2q35 -5 65.5 -25.5t50 -56.5t19.5 -86q0 -63 -27.5 -106t-80 -65t-126.5 -22h-296zM183 63h223q35 0 61.5 5t46 15.5t32.5 26.5t19.5 36t6.5 45q0 28 -7 49.5t-21 37.5t-33.5 26.5t-46 15.5t-58.5 5
h-223v-262zM183 388h208q82 0 123 33t41 99q0 61 -39.5 91.5t-124.5 30.5h-208v-254z" />
    <glyph glyph-name="uni0181" unicode="&#x181;" horiz-adv-x="845" 
d="M230 0v646h-42q-58 0 -82 -24t-24 -81v-43h-63v46q0 80 43 120.5t129 40.5h326q109 0 168 -47t59 -138q0 -66 -34.5 -106t-83.5 -51v-2q34 -5 64.5 -25.5t50 -56.5t19.5 -86q0 -63 -27.5 -106t-79.5 -65t-127 -22h-296zM300 62h224q85 0 125 33t40 96q0 69 -42 102
t-123 33h-224v-264zM300 388h208q82 0 123.5 33t41.5 100q0 60 -40 91t-125 31h-208v-255z" />
    <glyph glyph-name="C" unicode="C" horiz-adv-x="711" 
d="M404 -9q-99 0 -171.5 43.5t-111.5 125t-39 193.5t39 193t111 124t172 43q74 0 134.5 -23t104.5 -68l-30 -55q-47 43 -96.5 62t-112.5 19q-117 0 -183 -75t-66 -220q0 -144 66 -220t183 -76q63 0 112.5 19t96.5 62l30 -55q-44 -45 -104.5 -68.5t-134.5 -23.5z" />
    <glyph glyph-name="Cacute" unicode="&#x106;" horiz-adv-x="711" 
d="M404 -9q-99 0 -171.5 43.5t-111.5 125t-39 193.5t39 193t111 124t172 43q74 0 134.5 -23t104.5 -68l-30 -55q-47 43 -96.5 62t-112.5 19q-117 0 -183 -75t-66 -220q0 -144 66 -220t183 -76q63 0 112.5 19t96.5 62l30 -55q-44 -45 -104.5 -68.5t-134.5 -23.5zM372 765
l118 171h89l-146 -171h-61z" />
    <glyph glyph-name="Ccaron" unicode="&#x10c;" horiz-adv-x="711" 
d="M404 -9q-99 0 -171.5 43.5t-111.5 125t-39 193.5t39 193t111 124t172 43q74 0 134.5 -23t104.5 -68l-30 -55q-47 43 -96.5 62t-112.5 19q-117 0 -183 -75t-66 -220q0 -144 66 -220t183 -76q63 0 112.5 19t96.5 62l30 -55q-44 -45 -104.5 -68.5t-134.5 -23.5zM367 765
l-125 171h58l102 -122l103 122h57l-125 -171h-70z" />
    <glyph glyph-name="Ccedilla" unicode="&#xc7;" horiz-adv-x="711" 
d="M404 -9q-99 0 -171.5 43.5t-111.5 125t-39 193.5t39 193t111 124t172 43q74 0 134.5 -23t104.5 -68l-30 -55q-47 43 -96.5 62t-112.5 19q-117 0 -183 -75t-66 -220q0 -144 66 -220t183 -76q63 0 112.5 19t96.5 62l30 -55q-44 -45 -104.5 -68.5t-134.5 -23.5zM405 -193
q-24 0 -48.5 5t-39.5 14l12 43q19 -9 35.5 -13t41.5 -4q27 0 43.5 9t16.5 28q0 15 -10.5 22.5t-29.5 7.5q-9 0 -21.5 -2t-28.5 -7l-17 15l15 95h48l-13 -77l-22 8q11 3 25 5t26 2q23 0 41.5 -7.5t30.5 -23t12 -38.5q0 -25 -15.5 -43.5t-41.5 -28.5t-60 -10z" />
    <glyph glyph-name="uni1E08" unicode="&#x1e08;" horiz-adv-x="711" 
d="M404 -9q-99 0 -171.5 43.5t-111.5 125t-39 193.5t39 193t111 124t172 43q74 0 134.5 -23t104.5 -68l-30 -55q-47 43 -96.5 62t-112.5 19q-117 0 -183 -75t-66 -220q0 -144 66 -220t183 -76q63 0 112.5 19t96.5 62l30 -55q-44 -45 -104.5 -68.5t-134.5 -23.5zM405 -193
q-24 0 -48.5 5t-39.5 14l12 43q19 -9 35.5 -13t41.5 -4q27 0 43.5 9t16.5 28q0 15 -10.5 22.5t-29.5 7.5q-9 0 -21.5 -2t-28.5 -7l-17 15l15 95h48l-13 -77l-22 8q11 3 25 5t26 2q23 0 41.5 -7.5t30.5 -23t12 -38.5q0 -25 -15.5 -43.5t-41.5 -28.5t-60 -10zM372 765l118 171
h89l-146 -171h-61z" />
    <glyph glyph-name="Ccircumflex" unicode="&#x108;" horiz-adv-x="711" 
d="M404 -9q-99 0 -171.5 43.5t-111.5 125t-39 193.5t39 193t111 124t172 43q74 0 134.5 -23t104.5 -68l-30 -55q-47 43 -96.5 62t-112.5 19q-117 0 -183 -75t-66 -220q0 -144 66 -220t183 -76q63 0 112.5 19t96.5 62l30 -55q-44 -45 -104.5 -68.5t-134.5 -23.5zM242 765
l125 171h70l125 -171h-58l-102 122l-103 -122h-57z" />
    <glyph glyph-name="Cdotaccent" unicode="&#x10a;" horiz-adv-x="711" 
d="M404 -9q-99 0 -171.5 43.5t-111.5 125t-39 193.5t39 193t111 124t172 43q74 0 134.5 -23t104.5 -68l-30 -55q-47 43 -96.5 62t-112.5 19q-117 0 -183 -75t-66 -220q0 -144 66 -220t183 -76q63 0 112.5 19t96.5 62l30 -55q-44 -45 -104.5 -68.5t-134.5 -23.5zM357 809v87
h89v-87h-89z" />
    <glyph glyph-name="D" unicode="D" horiz-adv-x="781" 
d="M113 0v705h237q112 0 190 -41t118.5 -119.5t40.5 -191.5t-41 -192t-119 -120t-189 -41h-237zM183 64h164q136 0 207.5 70.5t71.5 218.5t-71 218t-208 70h-164v-577z" />
    <glyph glyph-name="uni01C4" unicode="&#x1c4;" horiz-adv-x="1369" 
d="M113 0v705h237q112 0 190 -41t118.5 -119.5t40.5 -191.5t-41 -192t-119 -120t-189 -41h-237zM183 64h164q136 0 207.5 70.5t71.5 218.5t-71 218t-208 70h-164v-577zM817 0v46l432 632l10 -37h-442v64h499v-45l-431 -633l-10 37h452v-64h-510zM1034 765l-125 171h58
l102 -122l103 122h57l-125 -171h-70z" />
    <glyph glyph-name="Eth" unicode="&#xd0;" horiz-adv-x="781" 
d="M113 0v705h237q112 0 190 -41t118.5 -119.5t40.5 -191.5t-41 -192t-119 -120t-189 -41h-237zM183 64h164q136 0 207.5 70.5t71.5 218.5t-71 218t-208 70h-164v-577zM22 328v61h368v-61h-368z" />
    <glyph glyph-name="Dcaron" unicode="&#x10e;" horiz-adv-x="781" 
d="M113 0v705h237q112 0 190 -41t118.5 -119.5t40.5 -191.5t-41 -192t-119 -120t-189 -41h-237zM183 64h164q136 0 207.5 70.5t71.5 218.5t-71 218t-208 70h-164v-577zM359 765l-125 171h58l102 -122l103 122h57l-125 -171h-70z" />
    <glyph glyph-name="Dcroat" unicode="&#x110;" horiz-adv-x="781" 
d="M113 0v705h237q112 0 190 -41t118.5 -119.5t40.5 -191.5t-41 -192t-119 -120t-189 -41h-237zM183 64h164q136 0 207.5 70.5t71.5 218.5t-71 218t-208 70h-164v-577zM22 328v61h368v-61h-368z" />
    <glyph glyph-name="uni1E0C" unicode="&#x1e0c;" horiz-adv-x="781" 
d="M113 0v705h237q112 0 190 -41t118.5 -119.5t40.5 -191.5t-41 -192t-119 -120t-189 -41h-237zM183 64h164q136 0 207.5 70.5t71.5 218.5t-71 218t-208 70h-164v-577zM353 -184v83h84v-83h-84z" />
    <glyph glyph-name="uni018A" unicode="&#x18a;" horiz-adv-x="899" 
d="M230 0v646h-42q-58 0 -82 -24t-24 -81v-43h-63v46q0 80 42.5 120.5t127.5 40.5h279q112 0 189.5 -41t118 -119.5t40.5 -191.5t-40.5 -192t-118.5 -120t-189 -41h-238zM301 64h163q137 0 208 70.5t71 218.5t-71 218t-208 70h-163v-577z" />
    <glyph glyph-name="uni1E0E" unicode="&#x1e0e;" horiz-adv-x="781" 
d="M113 0v705h237q112 0 190 -41t118.5 -119.5t40.5 -191.5t-41 -192t-119 -120t-189 -41h-237zM183 64h164q136 0 207.5 70.5t71.5 218.5t-71 218t-208 70h-164v-577zM238 -158v57h314v-57h-314z" />
    <glyph glyph-name="uni01C5" unicode="&#x1c5;" horiz-adv-x="1309" 
d="M113 0v705h237q112 0 190 -41t118.5 -119.5t40.5 -191.5t-41 -192t-119 -120t-189 -41h-237zM183 64h164q136 0 207.5 70.5t71.5 218.5t-71 218t-208 70h-164v-577zM843 0v43l329 415l7 -25h-325v61h390v-45l-330 -417l-7 29h349v-61h-413zM1016 559l-111 194h55l92 -143
l93 143h54l-111 -194h-72z" />
    <glyph glyph-name="E" unicode="E" horiz-adv-x="646" 
d="M113 0v705h451v-64h-381v-252h361v-64h-361v-261h381v-64h-451z" />
    <glyph glyph-name="Eacute" unicode="&#xc9;" horiz-adv-x="646" 
d="M113 0v705h451v-64h-381v-252h361v-64h-361v-261h381v-64h-451zM316 765l118 171h89l-146 -171h-61z" />
    <glyph glyph-name="Ebreve" unicode="&#x114;" horiz-adv-x="646" 
d="M113 0v705h451v-64h-381v-252h361v-64h-361v-261h381v-64h-451zM346 760q-70 0 -116 45.5t-52 124.5l51 7q5 -56 35 -89t82 -33q54 0 83.5 34t33.5 88l52 -7q-6 -79 -53 -124.5t-116 -45.5z" />
    <glyph glyph-name="Ecaron" unicode="&#x11a;" horiz-adv-x="646" 
d="M113 0v705h451v-64h-381v-252h361v-64h-361v-261h381v-64h-451zM311 765l-125 171h58l102 -122l103 122h57l-125 -171h-70z" />
    <glyph glyph-name="uni0228" unicode="&#x228;" horiz-adv-x="646" 
d="M113 0v705h451v-64h-381v-252h361v-64h-361v-261h381v-64h-451zM350 -193q-24 0 -48.5 5t-39.5 14l12 43q19 -9 35.5 -13t41.5 -4q27 0 43.5 9t16.5 28q0 15 -10.5 22.5t-29.5 7.5q-9 0 -21.5 -2t-28.5 -7l-17 15l15 95h48l-13 -77l-22 8q11 3 25 5t26 2q23 0 41.5 -7.5
t30.5 -23t12 -38.5q0 -25 -15.5 -43.5t-41.5 -28.5t-60 -10z" />
    <glyph glyph-name="uni1E1C" unicode="&#x1e1c;" horiz-adv-x="646" 
d="M113 0v705h451v-64h-381v-252h361v-64h-361v-261h381v-64h-451zM350 -193q-24 0 -48.5 5t-39.5 14l12 43q19 -9 35.5 -13t41.5 -4q27 0 43.5 9t16.5 28q0 15 -10.5 22.5t-29.5 7.5q-9 0 -21.5 -2t-28.5 -7l-17 15l15 95h48l-13 -77l-22 8q11 3 25 5t26 2q23 0 41.5 -7.5
t30.5 -23t12 -38.5q0 -25 -15.5 -43.5t-41.5 -28.5t-60 -10zM346 760q-70 0 -116 45.5t-52 124.5l51 7q5 -56 35 -89t82 -33q54 0 83.5 34t33.5 88l52 -7q-6 -79 -53 -124.5t-116 -45.5z" />
    <glyph glyph-name="Ecircumflex" unicode="&#xca;" horiz-adv-x="646" 
d="M113 0v705h451v-64h-381v-252h361v-64h-361v-261h381v-64h-451zM186 765l125 171h70l125 -171h-58l-102 122l-103 -122h-57z" />
    <glyph glyph-name="uni1EBE" unicode="&#x1ebe;" horiz-adv-x="646" 
d="M113 0v705h451v-64h-381v-252h361v-64h-361v-261h381v-64h-451zM196 769l115 165h70l115 -165h-55l-95 115l-96 -115h-54zM440 877l82 150h77l-108 -150h-51z" />
    <glyph glyph-name="uni1EC6" unicode="&#x1ec6;" horiz-adv-x="646" 
d="M113 0v705h451v-64h-381v-252h361v-64h-361v-261h381v-64h-451zM304 -184v83h84v-83h-84zM186 765l125 171h70l125 -171h-58l-102 122l-103 -122h-57z" />
    <glyph glyph-name="uni1EC0" unicode="&#x1ec0;" horiz-adv-x="646" 
d="M113 0v705h451v-64h-381v-252h361v-64h-361v-261h381v-64h-451zM196 769l115 165h70l115 -165h-55l-95 115l-96 -115h-54zM482 877l-107 150h74l83 -150h-50z" />
    <glyph glyph-name="uni1EC2" unicode="&#x1ec2;" horiz-adv-x="646" 
d="M113 0v705h451v-64h-381v-252h361v-64h-361v-261h381v-64h-451zM196 769l115 158h70l115 -158h-55l-95 112l-96 -112h-54zM446 879q0 22 9.5 35t22 21.5t22 16.5t9.5 18q0 12 -13 16.5t-35 4.5q-12 0 -27 -2.5t-34 -9.5l-12 38q16 8 37.5 12t50.5 4q44 0 67 -14t23 -37
q0 -21 -10.5 -33t-24 -21t-24 -20t-10.5 -29h-51z" />
    <glyph glyph-name="uni1EC4" unicode="&#x1ec4;" horiz-adv-x="646" 
d="M113 0v705h451v-64h-381v-252h361v-64h-361v-261h381v-64h-451zM196 769l115 132h70l115 -132h-55l-95 88l-96 -88h-54zM233 927l-46 2q5 52 29 78t64 26q23 0 41 -9.5t36 -21.5q15 -10 28 -17t25 -7q22 0 33.5 12.5t15.5 43.5l47 -3q-4 -49 -28 -75.5t-66 -26.5
q-22 0 -40 9.5t-36 20.5q-14 10 -27 17t-27 7q-20 0 -32 -12.5t-17 -43.5z" />
    <glyph glyph-name="uni0204" unicode="&#x204;" horiz-adv-x="646" 
d="M113 0v705h451v-64h-381v-252h361v-64h-361v-261h381v-64h-451zM385 765l-118 171h80l85 -171h-47zM259 765l-121 171h79l89 -171h-47z" />
    <glyph glyph-name="Edieresis" unicode="&#xcb;" horiz-adv-x="646" 
d="M113 0v705h451v-64h-381v-252h361v-64h-361v-261h381v-64h-451zM400 809v80h82v-80h-82zM210 809v80h82v-80h-82z" />
    <glyph glyph-name="Edotaccent" unicode="&#x116;" horiz-adv-x="646" 
d="M113 0v705h451v-64h-381v-252h361v-64h-361v-261h381v-64h-451zM301 809v87h89v-87h-89z" />
    <glyph glyph-name="uni1EB8" unicode="&#x1eb8;" horiz-adv-x="646" 
d="M113 0v705h451v-64h-381v-252h361v-64h-361v-261h381v-64h-451zM304 -184v83h84v-83h-84z" />
    <glyph glyph-name="Egrave" unicode="&#xc8;" horiz-adv-x="646" 
d="M113 0v705h451v-64h-381v-252h361v-64h-361v-261h381v-64h-451zM318 765l-146 171h87l118 -171h-59z" />
    <glyph glyph-name="uni1EBA" unicode="&#x1eba;" horiz-adv-x="646" 
d="M113 0v705h451v-64h-381v-252h361v-64h-361v-261h381v-64h-451zM320 765v16q0 20 9.5 33t22 22.5t22.5 18t10 19.5t-9.5 16t-31.5 5q-16 0 -34 -2.5t-37 -9.5l-13 41q18 9 41.5 14t50.5 5q45 0 70 -16t25 -43q0 -22 -11 -35t-25.5 -22.5t-25.5 -20t-11 -29.5v-12h-53z
" />
    <glyph glyph-name="uni0206" unicode="&#x206;" horiz-adv-x="646" 
d="M113 0v705h451v-64h-381v-252h361v-64h-361v-261h381v-64h-451zM230 760l-52 7q6 79 52 124.5t116 45.5q71 0 117 -46.5t52 -123.5l-52 -7q-4 54 -33.5 87.5t-83.5 33.5q-51 0 -81.5 -32t-34.5 -89z" />
    <glyph glyph-name="Emacron" unicode="&#x112;" horiz-adv-x="646" 
d="M113 0v705h451v-64h-381v-252h361v-64h-361v-261h381v-64h-451zM183 816v57h326v-57h-326z" />
    <glyph glyph-name="uni1E16" unicode="&#x1e16;" horiz-adv-x="646" 
d="M113 0v705h451v-64h-381v-252h361v-64h-361v-261h381v-64h-451zM196 793v56h300v-56h-300zM315 887l89 145h86l-118 -145h-57z" />
    <glyph glyph-name="uni1E14" unicode="&#x1e14;" horiz-adv-x="646" 
d="M113 0v705h451v-64h-381v-252h361v-64h-361v-261h381v-64h-451zM320 887l-118 145h86l89 -145h-57zM196 793v56h300v-56h-300z" />
    <glyph glyph-name="Eogonek" unicode="&#x118;" horiz-adv-x="646" 
d="M113 0v705h451v-64h-381v-252h361v-64h-361v-261h381v-64h-451zM500 -194q-46 0 -76 26t-30 69q0 39 27 75t71 59l28 -35q-15 -7 -31 -19.5t-26.5 -30.5t-10.5 -39q0 -29 16.5 -41t39.5 -12q12 0 25.5 3t26.5 9l17 -47q-13 -7 -32.5 -12t-44.5 -5z" />
    <glyph glyph-name="uni1EBC" unicode="&#x1ebc;" horiz-adv-x="646" 
d="M113 0v705h451v-64h-381v-252h361v-64h-361v-261h381v-64h-451zM189 783l-50 3q6 64 37 98.5t80 34.5q28 0 54 -13t51 -30q22 -14 40.5 -24t35.5 -10q29 0 45 20t23 59l49 -2q-6 -64 -37 -98.5t-80 -34.5q-28 0 -54 13.5t-51 29.5q-22 15 -41 24.5t-36 9.5q-28 0 -44 -20
t-22 -60z" />
    <glyph glyph-name="uni018F" unicode="&#x18f;" horiz-adv-x="807" 
d="M405 -8q-96 0 -168.5 43t-113.5 123.5t-41 190.5v37h608v-61h-561l26 28q0 -148 66.5 -222t182.5 -74q114 0 181.5 76t67.5 220q0 143 -66.5 219.5t-197.5 76.5q-46 0 -91 -9.5t-86.5 -28t-73.5 -47.5l-26 59q30 29 76 49t99 30.5t103 10.5q104 0 179 -40.5t115.5 -120.5
t40.5 -199q0 -84 -23.5 -151t-66 -113.5t-101.5 -71.5t-129 -25z" />
    <glyph glyph-name="F" unicode="F" horiz-adv-x="614" 
d="M113 0v705h450v-64h-380v-254h360v-64h-360v-323h-70z" />
    <glyph glyph-name="G" unicode="G" horiz-adv-x="779" 
d="M427 -8q-109 0 -186 42t-118 123t-41 196q0 113 39.5 193.5t114 123.5t177.5 43q53 0 100.5 -10.5t87.5 -30.5t68 -50l-30 -54q-46 42 -102 61t-125 19q-122 0 -189.5 -75t-67.5 -220q0 -150 70.5 -223.5t202.5 -73.5q60 0 112.5 9.5t93.5 27.5l-23 -49v258h-186v63h251
v-325q-27 -13 -68.5 -24t-88.5 -17.5t-92 -6.5z" />
    <glyph glyph-name="Gbreve" unicode="&#x11e;" horiz-adv-x="779" 
d="M427 -8q-109 0 -186 42t-118 123t-41 196q0 113 39.5 193.5t114 123.5t177.5 43q53 0 100.5 -10.5t87.5 -30.5t68 -50l-30 -54q-46 42 -102 61t-125 19q-122 0 -189.5 -75t-67.5 -220q0 -150 70.5 -223.5t202.5 -73.5q60 0 112.5 9.5t93.5 27.5l-23 -49v258h-186v63h251
v-325q-27 -13 -68.5 -24t-88.5 -17.5t-92 -6.5zM414 760q-70 0 -116 45.5t-52 124.5l51 7q5 -56 35 -89t82 -33q54 0 83.5 34t33.5 88l52 -7q-6 -79 -53 -124.5t-116 -45.5z" />
    <glyph glyph-name="Gcaron" unicode="&#x1e6;" horiz-adv-x="779" 
d="M427 -8q-109 0 -186 42t-118 123t-41 196q0 113 39.5 193.5t114 123.5t177.5 43q53 0 100.5 -10.5t87.5 -30.5t68 -50l-30 -54q-46 42 -102 61t-125 19q-122 0 -189.5 -75t-67.5 -220q0 -150 70.5 -223.5t202.5 -73.5q60 0 112.5 9.5t93.5 27.5l-23 -49v258h-186v63h251
v-325q-27 -13 -68.5 -24t-88.5 -17.5t-92 -6.5zM379 765l-125 171h58l102 -122l103 122h57l-125 -171h-70z" />
    <glyph glyph-name="Gcircumflex" unicode="&#x11c;" horiz-adv-x="779" 
d="M427 -8q-109 0 -186 42t-118 123t-41 196q0 113 39.5 193.5t114 123.5t177.5 43q53 0 100.5 -10.5t87.5 -30.5t68 -50l-30 -54q-46 42 -102 61t-125 19q-122 0 -189.5 -75t-67.5 -220q0 -150 70.5 -223.5t202.5 -73.5q60 0 112.5 9.5t93.5 27.5l-23 -49v258h-186v63h251
v-325q-27 -13 -68.5 -24t-88.5 -17.5t-92 -6.5zM254 765l125 171h70l125 -171h-58l-102 122l-103 -122h-57z" />
    <glyph glyph-name="uni0122" unicode="&#x122;" horiz-adv-x="779" 
d="M427 -8q-109 0 -186 42t-118 123t-41 196q0 113 39.5 193.5t114 123.5t177.5 43q53 0 100.5 -10.5t87.5 -30.5t68 -50l-30 -54q-46 42 -102 61t-125 19q-122 0 -189.5 -75t-67.5 -220q0 -150 70.5 -223.5t202.5 -73.5q60 0 112.5 9.5t93.5 27.5l-23 -49v258h-186v63h251
v-325q-27 -13 -68.5 -24t-88.5 -17.5t-92 -6.5zM414 -284l-35 27q24 23 32.5 48t8.5 52l13 -10h-59v85h92v-66q0 -40 -12.5 -74t-39.5 -62z" />
    <glyph glyph-name="Gdotaccent" unicode="&#x120;" horiz-adv-x="779" 
d="M427 -8q-109 0 -186 42t-118 123t-41 196q0 113 39.5 193.5t114 123.5t177.5 43q53 0 100.5 -10.5t87.5 -30.5t68 -50l-30 -54q-46 42 -102 61t-125 19q-122 0 -189.5 -75t-67.5 -220q0 -150 70.5 -223.5t202.5 -73.5q60 0 112.5 9.5t93.5 27.5l-23 -49v258h-186v63h251
v-325q-27 -13 -68.5 -24t-88.5 -17.5t-92 -6.5zM369 809v87h89v-87h-89z" />
    <glyph glyph-name="uni1E20" unicode="&#x1e20;" horiz-adv-x="779" 
d="M427 -8q-109 0 -186 42t-118 123t-41 196q0 113 39.5 193.5t114 123.5t177.5 43q53 0 100.5 -10.5t87.5 -30.5t68 -50l-30 -54q-46 42 -102 61t-125 19q-122 0 -189.5 -75t-67.5 -220q0 -150 70.5 -223.5t202.5 -73.5q60 0 112.5 9.5t93.5 27.5l-23 -49v258h-186v63h251
v-325q-27 -13 -68.5 -24t-88.5 -17.5t-92 -6.5zM251 816v57h326v-57h-326z" />
    <glyph glyph-name="H" unicode="H" horiz-adv-x="803" 
d="M113 0v705h70v-315h437v315h70v-705h-70v326h-437v-326h-70z" />
    <glyph glyph-name="Hbar" unicode="&#x126;" horiz-adv-x="816" 
d="M120 0v517h-104v61h104v127h70v-128h436v128h70v-127h104v-61h-104v-517h-70v323h-436v-323h-70zM190 387h436v131h-436v-131z" />
    <glyph glyph-name="uni1E2A" unicode="&#x1e2a;" horiz-adv-x="803" 
d="M113 0v705h70v-315h437v315h70v-705h-70v326h-437v-326h-70zM402 -215q-66 0 -108 39t-47 111l50 5q4 -49 30.5 -75.5t74.5 -26.5q47 0 74 26.5t31 75.5l50 -5q-5 -71 -46.5 -110.5t-108.5 -39.5z" />
    <glyph glyph-name="Hcircumflex" unicode="&#x124;" horiz-adv-x="803" 
d="M113 0v705h70v-315h437v315h70v-705h-70v326h-437v-326h-70zM241 765l125 171h70l125 -171h-58l-102 122l-103 -122h-57z" />
    <glyph glyph-name="uni1E24" unicode="&#x1e24;" horiz-adv-x="803" 
d="M113 0v705h70v-315h437v315h70v-705h-70v326h-437v-326h-70zM360 -184v83h84v-83h-84z" />
    <glyph glyph-name="I" unicode="I" horiz-adv-x="296" 
d="M113 0v705h70v-705h-70z" />
    <glyph glyph-name="IJ" unicode="&#x132;" horiz-adv-x="690" 
d="M113 0v705h70v-705h-70zM308 -7l-5 64l79 4q36 2 64 18.5t44.5 46t16.5 67.5v512h70v-516q0 -53 -24.5 -95.5t-67 -67.5t-96.5 -29z" />
    <glyph glyph-name="Iacute" unicode="&#xcd;" horiz-adv-x="296" 
d="M113 0v705h70v-705h-70zM118 765l118 171h89l-146 -171h-61z" />
    <glyph glyph-name="Ibreve" unicode="&#x12c;" horiz-adv-x="296" 
d="M113 0v705h70v-705h-70zM148 760q-70 0 -116 45.5t-52 124.5l51 7q5 -56 35 -89t82 -33q54 0 83.5 34t33.5 88l52 -7q-6 -79 -53 -124.5t-116 -45.5z" />
    <glyph glyph-name="Icircumflex" unicode="&#xce;" horiz-adv-x="296" 
d="M113 0v705h70v-705h-70zM-12 765l125 171h70l125 -171h-58l-102 122l-103 -122h-57z" />
    <glyph glyph-name="uni0208" unicode="&#x208;" horiz-adv-x="296" 
d="M113 0v705h70v-705h-70zM187 765l-118 171h80l85 -171h-47zM61 765l-121 171h79l89 -171h-47z" />
    <glyph glyph-name="Idieresis" unicode="&#xcf;" horiz-adv-x="296" 
d="M113 0v705h70v-705h-70zM202 809v80h82v-80h-82zM12 809v80h82v-80h-82z" />
    <glyph glyph-name="uni1E2E" unicode="&#x1e2e;" horiz-adv-x="296" 
d="M113 0v705h70v-705h-70zM118 885l89 145h86l-118 -145h-57zM16 772v73h88v-73h-88zM192 772v73h88v-73h-88z" />
    <glyph glyph-name="Idotaccent" unicode="&#x130;" horiz-adv-x="296" 
d="M113 0v705h70v-705h-70zM103 809v87h89v-87h-89z" />
    <glyph glyph-name="uni1ECA" unicode="&#x1eca;" horiz-adv-x="296" 
d="M113 0v705h70v-705h-70zM106 -184v83h84v-83h-84z" />
    <glyph glyph-name="Igrave" unicode="&#xcc;" horiz-adv-x="296" 
d="M113 0v705h70v-705h-70zM120 765l-146 171h87l118 -171h-59z" />
    <glyph glyph-name="uni1EC8" unicode="&#x1ec8;" horiz-adv-x="296" 
d="M113 0v705h70v-705h-70zM122 765v16q0 20 9.5 33t22 22.5t22.5 18t10 19.5t-9.5 16t-31.5 5q-16 0 -34 -2.5t-37 -9.5l-13 41q18 9 41.5 14t50.5 5q45 0 70 -16t25 -43q0 -22 -11 -35t-25.5 -22.5t-25.5 -20t-11 -29.5v-12h-53z" />
    <glyph glyph-name="uni020A" unicode="&#x20a;" horiz-adv-x="296" 
d="M113 0v705h70v-705h-70zM32 760l-52 7q6 79 52 124.5t116 45.5q71 0 117 -46.5t52 -123.5l-52 -7q-4 54 -33.5 87.5t-83.5 33.5q-51 0 -81.5 -32t-34.5 -89z" />
    <glyph glyph-name="Imacron" unicode="&#x12a;" horiz-adv-x="296" 
d="M113 0v705h70v-705h-70zM-15 816v57h326v-57h-326z" />
    <glyph glyph-name="Iogonek" unicode="&#x12e;" horiz-adv-x="296" 
d="M113 0v705h70v-705h-70zM158 -194q-46 0 -76 26t-30 69q0 39 27 75t71 59l28 -35q-15 -7 -31 -19.5t-26.5 -30.5t-10.5 -39q0 -29 16.5 -41t39.5 -12q12 0 25.5 3t26.5 9l17 -47q-13 -7 -32.5 -12t-44.5 -5z" />
    <glyph glyph-name="Itilde" unicode="&#x128;" horiz-adv-x="296" 
d="M113 0v705h70v-705h-70zM-9 783l-50 3q6 64 37 98.5t80 34.5q28 0 54 -13t51 -30q22 -14 40.5 -24t35.5 -10q29 0 45 20t23 59l49 -2q-6 -64 -37 -98.5t-80 -34.5q-28 0 -54 13.5t-51 29.5q-22 15 -41 24.5t-36 9.5q-28 0 -44 -20t-22 -60z" />
    <glyph glyph-name="J" unicode="J" horiz-adv-x="394" 
d="M12 -7l-5 64l79 4q36 2 64 18.5t44.5 46t16.5 67.5v512h70v-516q0 -53 -24.5 -95.5t-67 -67.5t-96.5 -29z" />
    <glyph glyph-name="Jcircumflex" unicode="&#x134;" horiz-adv-x="394" 
d="M12 -7l-5 64l79 4q36 2 64 18.5t44.5 46t16.5 67.5v512h70v-516q0 -53 -24.5 -95.5t-67 -67.5t-96.5 -29zM86 765l125 171h70l125 -171h-58l-102 122l-103 -122h-57z" />
    <glyph glyph-name="K" unicode="K" horiz-adv-x="659" 
d="M113 0v705h70v-323h4l348 323h92l-396 -367l5 42l416 -380h-98l-367 335h-4v-335h-70z" />
    <glyph glyph-name="uni0136" unicode="&#x136;" horiz-adv-x="659" 
d="M113 0v705h70v-323h4l348 323h92l-396 -367l5 42l416 -380h-98l-367 335h-4v-335h-70zM336 -284l-35 27q24 23 32.5 48t8.5 52l13 -10h-59v85h92v-66q0 -40 -12.5 -74t-39.5 -62z" />
    <glyph glyph-name="L" unicode="L" horiz-adv-x="582" 
d="M113 0v705h70v-641h366v-64h-436z" />
    <glyph glyph-name="uni01C7" unicode="&#x1c7;" horiz-adv-x="1016" 
d="M113 0v705h70v-641h366v-64h-436zM634 -7l-5 64l79 4q36 2 64 18.5t44.5 46t16.5 67.5v512h70v-516q0 -53 -24.5 -95.5t-67 -67.5t-96.5 -29z" />
    <glyph glyph-name="Lacute" unicode="&#x139;" horiz-adv-x="582" 
d="M113 0v705h70v-641h366v-64h-436zM119 765l118 171h89l-146 -171h-61z" />
    <glyph glyph-name="Lcaron" unicode="&#x13d;" horiz-adv-x="582" 
d="M113 0v705h70v-641h366v-64h-436zM301 481v224h71l-20 -224h-51z" />
    <glyph glyph-name="uni013B" unicode="&#x13b;" horiz-adv-x="582" 
d="M113 0v705h70v-641h366v-64h-436zM330 -284l-35 27q24 23 32.5 48t8.5 52l13 -10h-59v85h92v-66q0 -40 -12.5 -74t-39.5 -62z" />
    <glyph glyph-name="Ldot" unicode="&#x13f;" horiz-adv-x="582" 
d="M113 0v705h70v-641h366v-64h-436zM371 347v83h93v-83h-93z" />
    <glyph glyph-name="uni1E36" unicode="&#x1e36;" horiz-adv-x="582" 
d="M113 0v705h70v-641h366v-64h-436zM294 -184v83h84v-83h-84z" />
    <glyph glyph-name="uni01C8" unicode="&#x1c8;" horiz-adv-x="825" 
d="M113 0v705h70v-641h366v-64h-436zM660 621v84h89v-84h-89zM526 -193l-5 61l49 6q48 5 74 30.5t26 80.5v509h70v-507q0 -41 -10.5 -71.5t-30.5 -52t-50 -34t-71 -17.5z" />
    <glyph glyph-name="uni1E3A" unicode="&#x1e3a;" horiz-adv-x="582" 
d="M113 0v705h70v-641h366v-64h-436zM179 -158v57h314v-57h-314z" />
    <glyph glyph-name="Lslash" unicode="&#x141;" horiz-adv-x="582" 
d="M113 0v705h70v-641h366v-64h-436zM32 257l-31 54l359 205l30 -54z" />
    <glyph glyph-name="M" unicode="M" horiz-adv-x="914" 
d="M115 0v705h86l258 -517h-1l256 517h85v-705h-67v608v0l-247 -497h-54l-249 497v0v-608h-67z" />
    <glyph glyph-name="uni1E42" unicode="&#x1e42;" horiz-adv-x="914" 
d="M115 0v705h86l258 -517h-1l256 517h85v-705h-67v608v0l-247 -497h-54l-249 497v0v-608h-67zM408 -184v83h84v-83h-84z" />
    <glyph glyph-name="N" unicode="N" horiz-adv-x="812" 
d="M113 0v705h66l452 -599v0v599h68v-705h-67l-452 597v0v-597h-67z" />
    <glyph glyph-name="uni01CA" unicode="&#x1ca;" horiz-adv-x="1206" 
d="M113 0v705h66l452 -599v0v599h68v-705h-67l-452 597v0v-597h-67zM824 -7l-5 64l79 4q36 2 64 18.5t44.5 46t16.5 67.5v512h70v-516q0 -53 -24.5 -95.5t-67 -67.5t-96.5 -29z" />
    <glyph glyph-name="Nacute" unicode="&#x143;" horiz-adv-x="812" 
d="M113 0v705h66l452 -599v0v599h68v-705h-67l-452 597v0v-597h-67zM380 765l118 171h89l-146 -171h-61z" />
    <glyph glyph-name="Ncaron" unicode="&#x147;" horiz-adv-x="812" 
d="M113 0v705h66l452 -599v0v599h68v-705h-67l-452 597v0v-597h-67zM375 765l-125 171h58l102 -122l103 122h57l-125 -171h-70z" />
    <glyph glyph-name="uni0145" unicode="&#x145;" horiz-adv-x="812" 
d="M113 0v705h66l452 -599v0v599h68v-705h-67l-452 597v0v-597h-67zM403 -284l-35 27q24 23 32.5 48t8.5 52l13 -10h-59v85h92v-66q0 -40 -12.5 -74t-39.5 -62z" />
    <glyph glyph-name="uni1E44" unicode="&#x1e44;" horiz-adv-x="812" 
d="M113 0v705h66l452 -599v0v599h68v-705h-67l-452 597v0v-597h-67zM365 809v87h89v-87h-89z" />
    <glyph glyph-name="uni1E46" unicode="&#x1e46;" horiz-adv-x="812" 
d="M113 0v705h66l452 -599v0v599h68v-705h-67l-452 597v0v-597h-67zM367 -184v83h84v-83h-84z" />
    <glyph glyph-name="uni01CB" unicode="&#x1cb;" horiz-adv-x="1054" 
d="M113 0v705h66l452 -599v0v599h68v-705h-67l-452 597v0v-597h-67zM890 621v84h89v-84h-89zM756 -193l-5 61l49 6q48 5 74 30.5t26 80.5v509h70v-507q0 -41 -10.5 -71.5t-30.5 -52t-50 -34t-71 -17.5z" />
    <glyph glyph-name="uni1E48" unicode="&#x1e48;" horiz-adv-x="812" 
d="M113 0v705h66l452 -599v0v599h68v-705h-67l-452 597v0v-597h-67zM252 -158v57h314v-57h-314z" />
    <glyph glyph-name="Ntilde" unicode="&#xd1;" horiz-adv-x="812" 
d="M113 0v705h66l452 -599v0v599h68v-705h-67l-452 597v0v-597h-67zM253 783l-50 3q6 64 37 98.5t80 34.5q28 0 54 -13t51 -30q22 -14 40.5 -24t35.5 -10q29 0 45 20t23 59l49 -2q-6 -64 -37 -98.5t-80 -34.5q-28 0 -54 13.5t-51 29.5q-22 15 -41 24.5t-36 9.5
q-28 0 -44 -20t-22 -60z" />
    <glyph glyph-name="Eng" unicode="&#x14a;" horiz-adv-x="812" 
d="M494 -192l-5 60l42 5q48 5 75 29t27 79v64l7 -55l-460 607v0v-597h-67v705h65l453 -599v0v599h68v-719q0 -30 -6.5 -55.5t-19 -46t-31.5 -35.5t-45.5 -24.5t-59.5 -12.5z" />
    <glyph glyph-name="O" unicode="O" horiz-adv-x="807" 
d="M403 -8q-74 0 -133.5 24.5t-101.5 71.5t-64 113.5t-22 150.5q0 85 22 152t63.5 113.5t101 71t134.5 24.5q76 0 135.5 -24.5t101.5 -71t63.5 -113t21.5 -151.5q0 -84 -22 -151t-63.5 -114t-101 -71.5t-135.5 -24.5zM403 57q79 0 134.5 33.5t85 99.5t29.5 163t-29 162.5
t-85 99t-135 33.5q-78 0 -133.5 -33.5t-85 -99t-29.5 -162.5q0 -96 29.5 -162t85 -100t133.5 -34z" />
    <glyph glyph-name="Oacute" unicode="&#xd3;" horiz-adv-x="807" 
d="M403 -8q-74 0 -133.5 24.5t-101.5 71.5t-64 113.5t-22 150.5q0 85 22 152t63.5 113.5t101 71t134.5 24.5q76 0 135.5 -24.5t101.5 -71t63.5 -113t21.5 -151.5q0 -84 -22 -151t-63.5 -114t-101 -71.5t-135.5 -24.5zM403 57q79 0 134.5 33.5t85 99.5t29.5 163t-29 162.5
t-85 99t-135 33.5q-78 0 -133.5 -33.5t-85 -99t-29.5 -162.5q0 -96 29.5 -162t85 -100t133.5 -34zM373 765l118 171h89l-146 -171h-61z" />
    <glyph glyph-name="Obreve" unicode="&#x14e;" horiz-adv-x="807" 
d="M403 -8q-74 0 -133.5 24.5t-101.5 71.5t-64 113.5t-22 150.5q0 85 22 152t63.5 113.5t101 71t134.5 24.5q76 0 135.5 -24.5t101.5 -71t63.5 -113t21.5 -151.5q0 -84 -22 -151t-63.5 -114t-101 -71.5t-135.5 -24.5zM403 57q79 0 134.5 33.5t85 99.5t29.5 163t-29 162.5
t-85 99t-135 33.5q-78 0 -133.5 -33.5t-85 -99t-29.5 -162.5q0 -96 29.5 -162t85 -100t133.5 -34zM403 760q-70 0 -116 45.5t-52 124.5l51 7q5 -56 35 -89t82 -33q54 0 83.5 34t33.5 88l52 -7q-6 -79 -53 -124.5t-116 -45.5z" />
    <glyph glyph-name="Ocircumflex" unicode="&#xd4;" horiz-adv-x="807" 
d="M403 -8q-74 0 -133.5 24.5t-101.5 71.5t-64 113.5t-22 150.5q0 85 22 152t63.5 113.5t101 71t134.5 24.5q76 0 135.5 -24.5t101.5 -71t63.5 -113t21.5 -151.5q0 -84 -22 -151t-63.5 -114t-101 -71.5t-135.5 -24.5zM403 57q79 0 134.5 33.5t85 99.5t29.5 163t-29 162.5
t-85 99t-135 33.5q-78 0 -133.5 -33.5t-85 -99t-29.5 -162.5q0 -96 29.5 -162t85 -100t133.5 -34zM243 765l125 171h70l125 -171h-58l-102 122l-103 -122h-57z" />
    <glyph glyph-name="uni1ED0" unicode="&#x1ed0;" horiz-adv-x="807" 
d="M403 -8q-74 0 -133.5 24.5t-101.5 71.5t-64 113.5t-22 150.5q0 85 22 152t63.5 113.5t101 71t134.5 24.5q76 0 135.5 -24.5t101.5 -71t63.5 -113t21.5 -151.5q0 -84 -22 -151t-63.5 -114t-101 -71.5t-135.5 -24.5zM403 57q79 0 134.5 33.5t85 99.5t29.5 163t-29 162.5
t-85 99t-135 33.5q-78 0 -133.5 -33.5t-85 -99t-29.5 -162.5q0 -96 29.5 -162t85 -100t133.5 -34zM253 769l115 165h70l115 -165h-55l-95 115l-96 -115h-54zM497 877l82 150h77l-108 -150h-51z" />
    <glyph glyph-name="uni1ED8" unicode="&#x1ed8;" horiz-adv-x="807" 
d="M403 -8q-74 0 -133.5 24.5t-101.5 71.5t-64 113.5t-22 150.5q0 85 22 152t63.5 113.5t101 71t134.5 24.5q76 0 135.5 -24.5t101.5 -71t63.5 -113t21.5 -151.5q0 -84 -22 -151t-63.5 -114t-101 -71.5t-135.5 -24.5zM403 57q79 0 134.5 33.5t85 99.5t29.5 163t-29 162.5
t-85 99t-135 33.5q-78 0 -133.5 -33.5t-85 -99t-29.5 -162.5q0 -96 29.5 -162t85 -100t133.5 -34zM361 -184v83h84v-83h-84zM243 765l125 171h70l125 -171h-58l-102 122l-103 -122h-57z" />
    <glyph glyph-name="uni1ED2" unicode="&#x1ed2;" horiz-adv-x="807" 
d="M403 -8q-74 0 -133.5 24.5t-101.5 71.5t-64 113.5t-22 150.5q0 85 22 152t63.5 113.5t101 71t134.5 24.5q76 0 135.5 -24.5t101.5 -71t63.5 -113t21.5 -151.5q0 -84 -22 -151t-63.5 -114t-101 -71.5t-135.5 -24.5zM403 57q79 0 134.5 33.5t85 99.5t29.5 163t-29 162.5
t-85 99t-135 33.5q-78 0 -133.5 -33.5t-85 -99t-29.5 -162.5q0 -96 29.5 -162t85 -100t133.5 -34zM253 769l115 165h70l115 -165h-55l-95 115l-96 -115h-54zM539 877l-107 150h74l83 -150h-50z" />
    <glyph glyph-name="uni1ED4" unicode="&#x1ed4;" horiz-adv-x="807" 
d="M403 -8q-74 0 -133.5 24.5t-101.5 71.5t-64 113.5t-22 150.5q0 85 22 152t63.5 113.5t101 71t134.5 24.5q76 0 135.5 -24.5t101.5 -71t63.5 -113t21.5 -151.5q0 -84 -22 -151t-63.5 -114t-101 -71.5t-135.5 -24.5zM403 57q79 0 134.5 33.5t85 99.5t29.5 163t-29 162.5
t-85 99t-135 33.5q-78 0 -133.5 -33.5t-85 -99t-29.5 -162.5q0 -96 29.5 -162t85 -100t133.5 -34zM253 769l115 158h70l115 -158h-55l-95 112l-96 -112h-54zM503 879q0 22 9.5 35t22 21.5t22 16.5t9.5 18q0 12 -13 16.5t-35 4.5q-12 0 -27 -2.5t-34 -9.5l-12 38
q16 8 37.5 12t50.5 4q44 0 67 -14t23 -37q0 -21 -10.5 -33t-24 -21t-24 -20t-10.5 -29h-51z" />
    <glyph glyph-name="uni1ED6" unicode="&#x1ed6;" horiz-adv-x="807" 
d="M403 -8q-74 0 -133.5 24.5t-101.5 71.5t-64 113.5t-22 150.5q0 85 22 152t63.5 113.5t101 71t134.5 24.5q76 0 135.5 -24.5t101.5 -71t63.5 -113t21.5 -151.5q0 -84 -22 -151t-63.5 -114t-101 -71.5t-135.5 -24.5zM403 57q79 0 134.5 33.5t85 99.5t29.5 163t-29 162.5
t-85 99t-135 33.5q-78 0 -133.5 -33.5t-85 -99t-29.5 -162.5q0 -96 29.5 -162t85 -100t133.5 -34zM253 769l115 132h70l115 -132h-55l-95 88l-96 -88h-54zM290 927l-46 2q5 52 29 78t64 26q23 0 41 -9.5t36 -21.5q15 -10 28 -17t25 -7q22 0 33.5 12.5t15.5 43.5l47 -3
q-4 -49 -28 -75.5t-66 -26.5q-22 0 -40 9.5t-36 20.5q-14 10 -27 17t-27 7q-20 0 -32 -12.5t-17 -43.5z" />
    <glyph glyph-name="uni020C" unicode="&#x20c;" horiz-adv-x="807" 
d="M403 -8q-74 0 -133.5 24.5t-101.5 71.5t-64 113.5t-22 150.5q0 85 22 152t63.5 113.5t101 71t134.5 24.5q76 0 135.5 -24.5t101.5 -71t63.5 -113t21.5 -151.5q0 -84 -22 -151t-63.5 -114t-101 -71.5t-135.5 -24.5zM403 57q79 0 134.5 33.5t85 99.5t29.5 163t-29 162.5
t-85 99t-135 33.5q-78 0 -133.5 -33.5t-85 -99t-29.5 -162.5q0 -96 29.5 -162t85 -100t133.5 -34zM442 765l-118 171h80l85 -171h-47zM316 765l-121 171h79l89 -171h-47z" />
    <glyph glyph-name="Odieresis" unicode="&#xd6;" horiz-adv-x="807" 
d="M403 -8q-74 0 -133.5 24.5t-101.5 71.5t-64 113.5t-22 150.5q0 85 22 152t63.5 113.5t101 71t134.5 24.5q76 0 135.5 -24.5t101.5 -71t63.5 -113t21.5 -151.5q0 -84 -22 -151t-63.5 -114t-101 -71.5t-135.5 -24.5zM403 57q79 0 134.5 33.5t85 99.5t29.5 163t-29 162.5
t-85 99t-135 33.5q-78 0 -133.5 -33.5t-85 -99t-29.5 -162.5q0 -96 29.5 -162t85 -100t133.5 -34zM457 809v80h82v-80h-82zM267 809v80h82v-80h-82z" />
    <glyph glyph-name="uni022A" unicode="&#x22a;" horiz-adv-x="807" 
d="M403 -8q-74 0 -133.5 24.5t-101.5 71.5t-64 113.5t-22 150.5q0 85 22 152t63.5 113.5t101 71t134.5 24.5q76 0 135.5 -24.5t101.5 -71t63.5 -113t21.5 -151.5q0 -84 -22 -151t-63.5 -114t-101 -71.5t-135.5 -24.5zM403 57q79 0 134.5 33.5t85 99.5t29.5 163t-29 162.5
t-85 99t-135 33.5q-78 0 -133.5 -33.5t-85 -99t-29.5 -162.5q0 -96 29.5 -162t85 -100t133.5 -34zM246 928v55h314v-55h-314zM268 798v75h83v-75h-83zM455 798v75h83v-75h-83z" />
    <glyph glyph-name="uni0230" unicode="&#x230;" horiz-adv-x="807" 
d="M403 -8q-74 0 -133.5 24.5t-101.5 71.5t-64 113.5t-22 150.5q0 85 22 152t63.5 113.5t101 71t134.5 24.5q76 0 135.5 -24.5t101.5 -71t63.5 -113t21.5 -151.5q0 -84 -22 -151t-63.5 -114t-101 -71.5t-135.5 -24.5zM403 57q79 0 134.5 33.5t85 99.5t29.5 163t-29 162.5
t-85 99t-135 33.5q-78 0 -133.5 -33.5t-85 -99t-29.5 -162.5q0 -96 29.5 -162t85 -100t133.5 -34zM255 929v55h296v-55h-296zM361 799v74h85v-74h-85z" />
    <glyph glyph-name="uni1ECC" unicode="&#x1ecc;" horiz-adv-x="807" 
d="M403 -8q-74 0 -133.5 24.5t-101.5 71.5t-64 113.5t-22 150.5q0 85 22 152t63.5 113.5t101 71t134.5 24.5q76 0 135.5 -24.5t101.5 -71t63.5 -113t21.5 -151.5q0 -84 -22 -151t-63.5 -114t-101 -71.5t-135.5 -24.5zM403 57q79 0 134.5 33.5t85 99.5t29.5 163t-29 162.5
t-85 99t-135 33.5q-78 0 -133.5 -33.5t-85 -99t-29.5 -162.5q0 -96 29.5 -162t85 -100t133.5 -34zM361 -184v83h84v-83h-84z" />
    <glyph glyph-name="Ograve" unicode="&#xd2;" horiz-adv-x="807" 
d="M403 -8q-74 0 -133.5 24.5t-101.5 71.5t-64 113.5t-22 150.5q0 85 22 152t63.5 113.5t101 71t134.5 24.5q76 0 135.5 -24.5t101.5 -71t63.5 -113t21.5 -151.5q0 -84 -22 -151t-63.5 -114t-101 -71.5t-135.5 -24.5zM403 57q79 0 134.5 33.5t85 99.5t29.5 163t-29 162.5
t-85 99t-135 33.5q-78 0 -133.5 -33.5t-85 -99t-29.5 -162.5q0 -96 29.5 -162t85 -100t133.5 -34zM375 765l-146 171h87l118 -171h-59z" />
    <glyph glyph-name="uni1ECE" unicode="&#x1ece;" horiz-adv-x="807" 
d="M403 -8q-74 0 -133.5 24.5t-101.5 71.5t-64 113.5t-22 150.5q0 85 22 152t63.5 113.5t101 71t134.5 24.5q76 0 135.5 -24.5t101.5 -71t63.5 -113t21.5 -151.5q0 -84 -22 -151t-63.5 -114t-101 -71.5t-135.5 -24.5zM403 57q79 0 134.5 33.5t85 99.5t29.5 163t-29 162.5
t-85 99t-135 33.5q-78 0 -133.5 -33.5t-85 -99t-29.5 -162.5q0 -96 29.5 -162t85 -100t133.5 -34zM377 765v16q0 20 9.5 33t22 22.5t22.5 18t10 19.5t-9.5 16t-31.5 5q-16 0 -34 -2.5t-37 -9.5l-13 41q18 9 41.5 14t50.5 5q45 0 70 -16t25 -43q0 -22 -11 -35t-25.5 -22.5
t-25.5 -20t-11 -29.5v-12h-53z" />
    <glyph glyph-name="Ohorn" unicode="&#x1a0;" horiz-adv-x="807" 
d="M403 -8q-74 0 -133.5 24.5t-101.5 71.5t-64 113.5t-22 150.5q0 85 22 152t63.5 113.5t101 71t134.5 24.5q76 0 135.5 -24.5t101.5 -71t63.5 -113t21.5 -151.5q0 -84 -22 -151t-63.5 -114t-101 -71.5t-135.5 -24.5zM403 57q79 0 134.5 33.5t85 99.5t29.5 163t-29 162.5
t-85 99t-135 33.5q-78 0 -133.5 -33.5t-85 -99t-29.5 -162.5q0 -96 29.5 -162t85 -100t133.5 -34zM511 655l-49 54q27 -2 46.5 -3t36.5 -1q47 0 70.5 14t31.5 40t8 59v17h72v-28q0 -45 -18 -79t-50 -53.5t-76 -19.5h-72z" />
    <glyph glyph-name="uni1EDA" unicode="&#x1eda;" horiz-adv-x="807" 
d="M403 -8q-74 0 -133.5 24.5t-101.5 71.5t-64 113.5t-22 150.5q0 85 22 152t63.5 113.5t101 71t134.5 24.5q76 0 135.5 -24.5t101.5 -71t63.5 -113t21.5 -151.5q0 -84 -22 -151t-63.5 -114t-101 -71.5t-135.5 -24.5zM403 57q79 0 134.5 33.5t85 99.5t29.5 163t-29 162.5
t-85 99t-135 33.5q-78 0 -133.5 -33.5t-85 -99t-29.5 -162.5q0 -96 29.5 -162t85 -100t133.5 -34zM511 655l-49 54q27 -2 46.5 -3t36.5 -1q47 0 70.5 14t31.5 40t8 59v17h72v-28q0 -45 -18 -79t-50 -53.5t-76 -19.5h-72zM354 765l118 171h89l-146 -171h-61z" />
    <glyph glyph-name="uni1EE2" unicode="&#x1ee2;" horiz-adv-x="807" 
d="M403 -8q-74 0 -133.5 24.5t-101.5 71.5t-64 113.5t-22 150.5q0 85 22 152t63.5 113.5t101 71t134.5 24.5q76 0 135.5 -24.5t101.5 -71t63.5 -113t21.5 -151.5q0 -84 -22 -151t-63.5 -114t-101 -71.5t-135.5 -24.5zM403 57q79 0 134.5 33.5t85 99.5t29.5 163t-29 162.5
t-85 99t-135 33.5q-78 0 -133.5 -33.5t-85 -99t-29.5 -162.5q0 -96 29.5 -162t85 -100t133.5 -34zM511 655l-49 54q27 -2 46.5 -3t36.5 -1q47 0 70.5 14t31.5 40t8 59v17h72v-28q0 -45 -18 -79t-50 -53.5t-76 -19.5h-72zM361 -184v83h84v-83h-84z" />
    <glyph glyph-name="uni1EDC" unicode="&#x1edc;" horiz-adv-x="807" 
d="M403 -8q-74 0 -133.5 24.5t-101.5 71.5t-64 113.5t-22 150.5q0 85 22 152t63.5 113.5t101 71t134.5 24.5q76 0 135.5 -24.5t101.5 -71t63.5 -113t21.5 -151.5q0 -84 -22 -151t-63.5 -114t-101 -71.5t-135.5 -24.5zM403 57q79 0 134.5 33.5t85 99.5t29.5 163t-29 162.5
t-85 99t-135 33.5q-78 0 -133.5 -33.5t-85 -99t-29.5 -162.5q0 -96 29.5 -162t85 -100t133.5 -34zM511 655l-49 54q27 -2 46.5 -3t36.5 -1q47 0 70.5 14t31.5 40t8 59v17h72v-28q0 -45 -18 -79t-50 -53.5t-76 -19.5h-72zM356 765l-146 171h87l118 -171h-59z" />
    <glyph glyph-name="uni1EDE" unicode="&#x1ede;" horiz-adv-x="807" 
d="M403 -8q-74 0 -133.5 24.5t-101.5 71.5t-64 113.5t-22 150.5q0 85 22 152t63.5 113.5t101 71t134.5 24.5q76 0 135.5 -24.5t101.5 -71t63.5 -113t21.5 -151.5q0 -84 -22 -151t-63.5 -114t-101 -71.5t-135.5 -24.5zM403 57q79 0 134.5 33.5t85 99.5t29.5 163t-29 162.5
t-85 99t-135 33.5q-78 0 -133.5 -33.5t-85 -99t-29.5 -162.5q0 -96 29.5 -162t85 -100t133.5 -34zM511 655l-49 54q27 -2 46.5 -3t36.5 -1q47 0 70.5 14t31.5 40t8 59v17h72v-28q0 -45 -18 -79t-50 -53.5t-76 -19.5h-72zM358 765v16q0 20 9.5 33t22 22.5t22.5 18t10 19.5
t-9.5 16t-31.5 5q-16 0 -34 -2.5t-37 -9.5l-13 41q18 9 41.5 14t50.5 5q45 0 70 -16t25 -43q0 -22 -11 -35t-25.5 -22.5t-25.5 -20t-11 -29.5v-12h-53z" />
    <glyph glyph-name="uni1EE0" unicode="&#x1ee0;" horiz-adv-x="807" 
d="M403 -8q-74 0 -133.5 24.5t-101.5 71.5t-64 113.5t-22 150.5q0 85 22 152t63.5 113.5t101 71t134.5 24.5q76 0 135.5 -24.5t101.5 -71t63.5 -113t21.5 -151.5q0 -84 -22 -151t-63.5 -114t-101 -71.5t-135.5 -24.5zM403 57q79 0 134.5 33.5t85 99.5t29.5 163t-29 162.5
t-85 99t-135 33.5q-78 0 -133.5 -33.5t-85 -99t-29.5 -162.5q0 -96 29.5 -162t85 -100t133.5 -34zM511 655l-49 54q27 -2 46.5 -3t36.5 -1q47 0 70.5 14t31.5 40t8 59v17h72v-28q0 -45 -18 -79t-50 -53.5t-76 -19.5h-72zM238 784l-49 4q5 42 19.5 71t38.5 44t56 15
q28 0 50 -13t42 -30q18 -13 34 -23t33 -10q31 0 45.5 21t21.5 58l47 -3q-4 -41 -19 -70.5t-39 -44.5t-55 -15q-28 0 -50 13.5t-43 29.5q-17 14 -33.5 23.5t-33.5 9.5q-30 0 -44 -20t-21 -60z" />
    <glyph glyph-name="Ohungarumlaut" unicode="&#x150;" horiz-adv-x="807" 
d="M403 -8q-74 0 -133.5 24.5t-101.5 71.5t-64 113.5t-22 150.5q0 85 22 152t63.5 113.5t101 71t134.5 24.5q76 0 135.5 -24.5t101.5 -71t63.5 -113t21.5 -151.5q0 -84 -22 -151t-63.5 -114t-101 -71.5t-135.5 -24.5zM403 57q79 0 134.5 33.5t85 99.5t29.5 163t-29 162.5
t-85 99t-135 33.5q-78 0 -133.5 -33.5t-85 -99t-29.5 -162.5q0 -96 29.5 -162t85 -100t133.5 -34zM317 765l85 171h80l-118 -171h-47zM442 765l90 171h79l-122 -171h-47z" />
    <glyph glyph-name="uni020E" unicode="&#x20e;" horiz-adv-x="807" 
d="M403 -8q-74 0 -133.5 24.5t-101.5 71.5t-64 113.5t-22 150.5q0 85 22 152t63.5 113.5t101 71t134.5 24.5q76 0 135.5 -24.5t101.5 -71t63.5 -113t21.5 -151.5q0 -84 -22 -151t-63.5 -114t-101 -71.5t-135.5 -24.5zM403 57q79 0 134.5 33.5t85 99.5t29.5 163t-29 162.5
t-85 99t-135 33.5q-78 0 -133.5 -33.5t-85 -99t-29.5 -162.5q0 -96 29.5 -162t85 -100t133.5 -34zM287 760l-52 7q6 79 52 124.5t116 45.5q71 0 117 -46.5t52 -123.5l-52 -7q-4 54 -33.5 87.5t-83.5 33.5q-51 0 -81.5 -32t-34.5 -89z" />
    <glyph glyph-name="Omacron" unicode="&#x14c;" horiz-adv-x="807" 
d="M403 -8q-74 0 -133.5 24.5t-101.5 71.5t-64 113.5t-22 150.5q0 85 22 152t63.5 113.5t101 71t134.5 24.5q76 0 135.5 -24.5t101.5 -71t63.5 -113t21.5 -151.5q0 -84 -22 -151t-63.5 -114t-101 -71.5t-135.5 -24.5zM403 57q79 0 134.5 33.5t85 99.5t29.5 163t-29 162.5
t-85 99t-135 33.5q-78 0 -133.5 -33.5t-85 -99t-29.5 -162.5q0 -96 29.5 -162t85 -100t133.5 -34zM240 816v57h326v-57h-326z" />
    <glyph glyph-name="uni1E52" unicode="&#x1e52;" horiz-adv-x="807" 
d="M403 -8q-74 0 -133.5 24.5t-101.5 71.5t-64 113.5t-22 150.5q0 85 22 152t63.5 113.5t101 71t134.5 24.5q76 0 135.5 -24.5t101.5 -71t63.5 -113t21.5 -151.5q0 -84 -22 -151t-63.5 -114t-101 -71.5t-135.5 -24.5zM403 57q79 0 134.5 33.5t85 99.5t29.5 163t-29 162.5
t-85 99t-135 33.5q-78 0 -133.5 -33.5t-85 -99t-29.5 -162.5q0 -96 29.5 -162t85 -100t133.5 -34zM253 793v56h300v-56h-300zM372 887l89 145h86l-118 -145h-57z" />
    <glyph glyph-name="uni1E50" unicode="&#x1e50;" horiz-adv-x="807" 
d="M403 -8q-74 0 -133.5 24.5t-101.5 71.5t-64 113.5t-22 150.5q0 85 22 152t63.5 113.5t101 71t134.5 24.5q76 0 135.5 -24.5t101.5 -71t63.5 -113t21.5 -151.5q0 -84 -22 -151t-63.5 -114t-101 -71.5t-135.5 -24.5zM403 57q79 0 134.5 33.5t85 99.5t29.5 163t-29 162.5
t-85 99t-135 33.5q-78 0 -133.5 -33.5t-85 -99t-29.5 -162.5q0 -96 29.5 -162t85 -100t133.5 -34zM377 887l-118 145h86l89 -145h-57zM253 793v56h300v-56h-300z" />
    <glyph glyph-name="uni01EA" unicode="&#x1ea;" horiz-adv-x="807" 
d="M403 -8q-74 0 -133.5 24.5t-101.5 71.5t-64 113.5t-22 150.5q0 85 22 152t63.5 113.5t101 71t134.5 24.5q76 0 135.5 -24.5t101.5 -71t63.5 -113t21.5 -151.5q0 -84 -22 -151t-63.5 -114t-101 -71.5t-135.5 -24.5zM403 57q79 0 134.5 33.5t85 99.5t29.5 163t-29 162.5
t-85 99t-135 33.5q-78 0 -133.5 -33.5t-85 -99t-29.5 -162.5q0 -96 29.5 -162t85 -100t133.5 -34zM450 -194q-46 0 -76 26t-30 69q0 39 27 75t71 59l28 -35q-15 -7 -31 -19.5t-26.5 -30.5t-10.5 -39q0 -29 16.5 -41t39.5 -12q12 0 25.5 3t26.5 9l17 -47q-13 -7 -32.5 -12
t-44.5 -5z" />
    <glyph glyph-name="Oslash" unicode="&#xd8;" horiz-adv-x="807" 
d="M403 -8q-74 0 -133.5 24.5t-101.5 71.5t-64 113.5t-22 150.5q0 85 22 152t63.5 113.5t101 71t134.5 24.5q76 0 135.5 -24.5t101.5 -71t63.5 -113t21.5 -151.5q0 -84 -22 -151t-63.5 -114t-101 -71.5t-135.5 -24.5zM403 57q79 0 134.5 33.5t85 99.5t29.5 163t-29 162.5
t-85 99t-135 33.5q-78 0 -133.5 -33.5t-85 -99t-29.5 -162.5q0 -96 29.5 -162t85 -100t133.5 -34zM216 -42l-56 32l54 92l26 37l297 508l15 36l55 92l55 -32l-54 -92l-26 -37l-296 -508l-16 -36z" />
    <glyph glyph-name="Oslashacute" unicode="&#x1fe;" horiz-adv-x="807" 
d="M403 -8q-74 0 -133.5 24.5t-101.5 71.5t-64 113.5t-22 150.5q0 85 22 152t63.5 113.5t101 71t134.5 24.5q76 0 135.5 -24.5t101.5 -71t63.5 -113t21.5 -151.5q0 -84 -22 -151t-63.5 -114t-101 -71.5t-135.5 -24.5zM403 57q79 0 134.5 33.5t85 99.5t29.5 163t-29 162.5
t-85 99t-135 33.5q-78 0 -133.5 -33.5t-85 -99t-29.5 -162.5q0 -96 29.5 -162t85 -100t133.5 -34zM216 -42l-56 32l54 92l26 37l297 508l15 36l55 92l55 -32l-54 -92l-26 -37l-296 -508l-16 -36zM373 765l118 171h89l-146 -171h-61z" />
    <glyph glyph-name="Otilde" unicode="&#xd5;" horiz-adv-x="807" 
d="M403 -8q-74 0 -133.5 24.5t-101.5 71.5t-64 113.5t-22 150.5q0 85 22 152t63.5 113.5t101 71t134.5 24.5q76 0 135.5 -24.5t101.5 -71t63.5 -113t21.5 -151.5q0 -84 -22 -151t-63.5 -114t-101 -71.5t-135.5 -24.5zM403 57q79 0 134.5 33.5t85 99.5t29.5 163t-29 162.5
t-85 99t-135 33.5q-78 0 -133.5 -33.5t-85 -99t-29.5 -162.5q0 -96 29.5 -162t85 -100t133.5 -34zM246 783l-50 3q6 64 37 98.5t80 34.5q28 0 54 -13t51 -30q22 -14 40.5 -24t35.5 -10q29 0 45 20t23 59l49 -2q-6 -64 -37 -98.5t-80 -34.5q-28 0 -54 13.5t-51 29.5
q-22 15 -41 24.5t-36 9.5q-28 0 -44 -20t-22 -60z" />
    <glyph glyph-name="uni1E4C" unicode="&#x1e4c;" horiz-adv-x="807" 
d="M403 -8q-74 0 -133.5 24.5t-101.5 71.5t-64 113.5t-22 150.5q0 85 22 152t63.5 113.5t101 71t134.5 24.5q76 0 135.5 -24.5t101.5 -71t63.5 -113t21.5 -151.5q0 -84 -22 -151t-63.5 -114t-101 -71.5t-135.5 -24.5zM403 57q79 0 134.5 33.5t85 99.5t29.5 163t-29 162.5
t-85 99t-135 33.5q-78 0 -133.5 -33.5t-85 -99t-29.5 -162.5q0 -96 29.5 -162t85 -100t133.5 -34zM375 885l88 145h86l-117 -145h-57zM469 768q-22 0 -40 9t-36 21q-14 11 -27.5 17.5t-26.5 6.5q-22 0 -33 -13.5t-16 -42.5l-46 2q3 35 14.5 57.5t31.5 34.5t47 12
q23 0 41 -9.5t35 -21.5q16 -10 29 -17t25 -7q23 0 34 14t15 42l47 -2q-4 -51 -29 -77t-65 -26z" />
    <glyph glyph-name="uni1E4E" unicode="&#x1e4e;" horiz-adv-x="807" 
d="M403 -8q-74 0 -133.5 24.5t-101.5 71.5t-64 113.5t-22 150.5q0 85 22 152t63.5 113.5t101 71t134.5 24.5q76 0 135.5 -24.5t101.5 -71t63.5 -113t21.5 -151.5q0 -84 -22 -151t-63.5 -114t-101 -71.5t-135.5 -24.5zM403 57q79 0 134.5 33.5t85 99.5t29.5 163t-29 162.5
t-85 99t-135 33.5q-78 0 -133.5 -33.5t-85 -99t-29.5 -162.5q0 -96 29.5 -162t85 -100t133.5 -34zM469 768q-22 0 -40 9t-36 21q-14 11 -27.5 17.5t-26.5 6.5q-22 0 -33 -13.5t-16 -42.5l-46 2q3 35 14.5 57.5t31.5 34.5t47 12q23 0 41 -9.5t35 -21.5q16 -10 29 -17t25 -7
q23 0 34 14t15 42l47 -2q-4 -51 -29 -77t-65 -26zM268 915v74h83v-74h-83zM455 915v74h83v-74h-83z" />
    <glyph glyph-name="uni022C" unicode="&#x22c;" horiz-adv-x="807" 
d="M403 -8q-74 0 -133.5 24.5t-101.5 71.5t-64 113.5t-22 150.5q0 85 22 152t63.5 113.5t101 71t134.5 24.5q76 0 135.5 -24.5t101.5 -71t63.5 -113t21.5 -151.5q0 -84 -22 -151t-63.5 -114t-101 -71.5t-135.5 -24.5zM403 57q79 0 134.5 33.5t85 99.5t29.5 163t-29 162.5
t-85 99t-135 33.5q-78 0 -133.5 -33.5t-85 -99t-29.5 -162.5q0 -96 29.5 -162t85 -100t133.5 -34zM246 929v54h314v-54h-314zM469 768q-22 0 -40 9t-36 21q-14 11 -27.5 17.5t-26.5 6.5q-22 0 -33 -13.5t-16 -42.5l-46 2q3 35 14.5 57.5t31.5 34.5t47 12q23 0 41 -9.5
t35 -21.5q16 -10 29 -17t25 -7q23 0 34 14t15 42l47 -2q-4 -51 -29 -77t-65 -26z" />
    <glyph glyph-name="OE" unicode="&#x152;" horiz-adv-x="1125" 
d="M432 0q-85 0 -150.5 23.5t-109.5 69t-67 110.5t-23 149t23 149.5t67.5 111t110 69t149.5 23.5h611v-64h-382v-252h362v-64h-362v-261h382v-64h-611zM435 64h156v577h-156q-138 0 -209 -71t-71 -218t71 -217.5t209 -70.5z" />
    <glyph glyph-name="P" unicode="P" horiz-adv-x="692" 
d="M113 0v705h280q75 0 127.5 -25t80.5 -71.5t28 -112.5q0 -65 -28 -112.5t-81 -72.5t-127 -25h-210v-286h-70zM183 348h201q86 0 130 37t44 111q0 75 -44 110.5t-130 35.5h-201v-294z" />
    <glyph glyph-name="Thorn" unicode="&#xde;" horiz-adv-x="680" 
d="M113 0v705h70v-133h210q75 0 128 -24t80.5 -69.5t27.5 -111.5q0 -65 -28 -112t-80.5 -71.5t-127.5 -24.5h-210v-159h-70zM183 222h201q86 0 130 35t44 110q0 74 -44 108.5t-130 34.5h-201v-288z" />
    <glyph glyph-name="Q" unicode="Q" horiz-adv-x="807" 
d="M606 -195l-77 125q-18 30 -47.5 46t-70.5 16l54 24q34 0 58 -6t42.5 -22t36.5 -46l65 -103zM403 -8q-74 0 -133.5 24.5t-101.5 71.5t-64 113.5t-22 150.5q0 85 22 152t63.5 113.5t101 71t134.5 24.5q76 0 135.5 -24.5t101.5 -71t63.5 -113t21.5 -151.5q0 -84 -22 -151
t-63.5 -114t-101 -71.5t-135.5 -24.5zM403 57q79 0 134.5 33.5t85 99.5t29.5 163t-29 162.5t-85 99t-135 33.5q-78 0 -133.5 -33.5t-85 -99t-29.5 -162.5q0 -96 29.5 -162t85 -100t133.5 -34z" />
    <glyph glyph-name="R" unicode="R" horiz-adv-x="722" 
d="M113 0v705h281q112 0 173 -50.5t61 -148.5q0 -55 -21 -95.5t-59 -65t-90 -32.5l2 -2l6 -2q22 -6 39 -21.5t35 -49.5l126 -238h-77l-118 223q-16 31 -34.5 47.5t-44 22.5t-61.5 6h-148v-299h-70zM183 361h211q85 0 123.5 35.5t38.5 108.5t-40.5 105t-127.5 32h-205v-281z
" />
    <glyph glyph-name="Racute" unicode="&#x154;" horiz-adv-x="722" 
d="M113 0v705h281q112 0 173 -50.5t61 -148.5q0 -55 -21 -95.5t-59 -65t-90 -32.5l2 -2l6 -2q22 -6 39 -21.5t35 -49.5l126 -238h-77l-118 223q-16 31 -34.5 47.5t-44 22.5t-61.5 6h-148v-299h-70zM183 361h211q85 0 123.5 35.5t38.5 108.5t-40.5 105t-127.5 32h-205v-281z
M332 765l118 171h89l-146 -171h-61z" />
    <glyph glyph-name="Rcaron" unicode="&#x158;" horiz-adv-x="722" 
d="M113 0v705h281q112 0 173 -50.5t61 -148.5q0 -55 -21 -95.5t-59 -65t-90 -32.5l2 -2l6 -2q22 -6 39 -21.5t35 -49.5l126 -238h-77l-118 223q-16 31 -34.5 47.5t-44 22.5t-61.5 6h-148v-299h-70zM183 361h211q85 0 123.5 35.5t38.5 108.5t-40.5 105t-127.5 32h-205v-281z
M327 765l-125 171h58l102 -122l103 122h57l-125 -171h-70z" />
    <glyph glyph-name="uni0156" unicode="&#x156;" horiz-adv-x="722" 
d="M113 0v705h281q112 0 173 -50.5t61 -148.5q0 -55 -21 -95.5t-59 -65t-90 -32.5l2 -2l6 -2q22 -6 39 -21.5t35 -49.5l126 -238h-77l-118 223q-16 31 -34.5 47.5t-44 22.5t-61.5 6h-148v-299h-70zM183 361h211q85 0 123.5 35.5t38.5 108.5t-40.5 105t-127.5 32h-205v-281z
M356 -284l-35 27q24 23 32.5 48t8.5 52l13 -10h-59v85h92v-66q0 -40 -12.5 -74t-39.5 -62z" />
    <glyph glyph-name="uni0210" unicode="&#x210;" horiz-adv-x="722" 
d="M113 0v705h281q112 0 173 -50.5t61 -148.5q0 -55 -21 -95.5t-59 -65t-90 -32.5l2 -2l6 -2q22 -6 39 -21.5t35 -49.5l126 -238h-77l-118 223q-16 31 -34.5 47.5t-44 22.5t-61.5 6h-148v-299h-70zM183 361h211q85 0 123.5 35.5t38.5 108.5t-40.5 105t-127.5 32h-205v-281z
M401 765l-118 171h80l85 -171h-47zM275 765l-121 171h79l89 -171h-47z" />
    <glyph glyph-name="uni1E5A" unicode="&#x1e5a;" horiz-adv-x="722" 
d="M113 0v705h281q112 0 173 -50.5t61 -148.5q0 -55 -21 -95.5t-59 -65t-90 -32.5l2 -2l6 -2q22 -6 39 -21.5t35 -49.5l126 -238h-77l-118 223q-16 31 -34.5 47.5t-44 22.5t-61.5 6h-148v-299h-70zM183 361h211q85 0 123.5 35.5t38.5 108.5t-40.5 105t-127.5 32h-205v-281z
M320 -184v83h84v-83h-84z" />
    <glyph glyph-name="uni0212" unicode="&#x212;" horiz-adv-x="722" 
d="M113 0v705h281q112 0 173 -50.5t61 -148.5q0 -55 -21 -95.5t-59 -65t-90 -32.5l2 -2l6 -2q22 -6 39 -21.5t35 -49.5l126 -238h-77l-118 223q-16 31 -34.5 47.5t-44 22.5t-61.5 6h-148v-299h-70zM183 361h211q85 0 123.5 35.5t38.5 108.5t-40.5 105t-127.5 32h-205v-281z
M246 760l-52 7q6 79 52 124.5t116 45.5q71 0 117 -46.5t52 -123.5l-52 -7q-4 54 -33.5 87.5t-83.5 33.5q-51 0 -81.5 -32t-34.5 -89z" />
    <glyph glyph-name="uni1E5E" unicode="&#x1e5e;" horiz-adv-x="722" 
d="M113 0v705h281q112 0 173 -50.5t61 -148.5q0 -55 -21 -95.5t-59 -65t-90 -32.5l2 -2l6 -2q22 -6 39 -21.5t35 -49.5l126 -238h-77l-118 223q-16 31 -34.5 47.5t-44 22.5t-61.5 6h-148v-299h-70zM183 361h211q85 0 123.5 35.5t38.5 108.5t-40.5 105t-127.5 32h-205v-281z
M205 -158v57h314v-57h-314z" />
    <glyph glyph-name="S" unicode="S" horiz-adv-x="657" 
d="M344 -8q-59 0 -111 8.5t-95 27.5t-74 47l28 59q36 -30 74.5 -47t83 -23.5t94.5 -6.5q85 0 133 36t48 100q0 33 -15.5 55t-48.5 36t-85 24l-117 24q-96 19 -137.5 65.5t-41.5 117.5q0 60 34.5 104.5t95 69t137.5 24.5q50 0 93 -9.5t78.5 -29t64.5 -48.5l-29 -59
q-44 45 -94.5 63t-113.5 18q-55 0 -99.5 -15.5t-70.5 -45t-26 -74.5q0 -47 29.5 -75t100.5 -42l116 -22q103 -21 151 -65t48 -114q0 -58 -31 -104.5t-87.5 -72.5t-132.5 -26z" />
    <glyph glyph-name="Sacute" unicode="&#x15a;" horiz-adv-x="657" 
d="M344 -8q-59 0 -111 8.5t-95 27.5t-74 47l28 59q36 -30 74.5 -47t83 -23.5t94.5 -6.5q85 0 133 36t48 100q0 33 -15.5 55t-48.5 36t-85 24l-117 24q-96 19 -137.5 65.5t-41.5 117.5q0 60 34.5 104.5t95 69t137.5 24.5q50 0 93 -9.5t78.5 -29t64.5 -48.5l-29 -59
q-44 45 -94.5 63t-113.5 18q-55 0 -99.5 -15.5t-70.5 -45t-26 -74.5q0 -47 29.5 -75t100.5 -42l116 -22q103 -21 151 -65t48 -114q0 -58 -31 -104.5t-87.5 -72.5t-132.5 -26zM314 765l118 171h89l-146 -171h-61z" />
    <glyph glyph-name="uni1E64" unicode="&#x1e64;" horiz-adv-x="657" 
d="M344 -8q-59 0 -111 8.5t-95 27.5t-74 47l28 59q36 -30 74.5 -47t83 -23.5t94.5 -6.5q85 0 133 36t48 100q0 33 -15.5 55t-48.5 36t-85 24l-117 24q-96 19 -137.5 65.5t-41.5 117.5q0 60 34.5 104.5t95 69t137.5 24.5q50 0 93 -9.5t78.5 -29t64.5 -48.5l-29 -59
q-44 45 -94.5 63t-113.5 18q-55 0 -99.5 -15.5t-70.5 -45t-26 -74.5q0 -47 29.5 -75t100.5 -42l116 -22q103 -21 151 -65t48 -114q0 -58 -31 -104.5t-87.5 -72.5t-132.5 -26zM258 965v74h85v-74h-85zM314 765l108 196h88l-136 -196h-60z" />
    <glyph glyph-name="Scaron" unicode="&#x160;" horiz-adv-x="657" 
d="M344 -8q-59 0 -111 8.5t-95 27.5t-74 47l28 59q36 -30 74.5 -47t83 -23.5t94.5 -6.5q85 0 133 36t48 100q0 33 -15.5 55t-48.5 36t-85 24l-117 24q-96 19 -137.5 65.5t-41.5 117.5q0 60 34.5 104.5t95 69t137.5 24.5q50 0 93 -9.5t78.5 -29t64.5 -48.5l-29 -59
q-44 45 -94.5 63t-113.5 18q-55 0 -99.5 -15.5t-70.5 -45t-26 -74.5q0 -47 29.5 -75t100.5 -42l116 -22q103 -21 151 -65t48 -114q0 -58 -31 -104.5t-87.5 -72.5t-132.5 -26zM309 765l-125 171h58l102 -122l103 122h57l-125 -171h-70z" />
    <glyph glyph-name="uni1E66" unicode="&#x1e66;" horiz-adv-x="657" 
d="M344 -8q-59 0 -111 8.5t-95 27.5t-74 47l28 59q36 -30 74.5 -47t83 -23.5t94.5 -6.5q85 0 133 36t48 100q0 33 -15.5 55t-48.5 36t-85 24l-117 24q-96 19 -137.5 65.5t-41.5 117.5q0 60 34.5 104.5t95 69t137.5 24.5q50 0 93 -9.5t78.5 -29t64.5 -48.5l-29 -59
q-44 45 -94.5 63t-113.5 18q-55 0 -99.5 -15.5t-70.5 -45t-26 -74.5q0 -47 29.5 -75t100.5 -42l116 -22q103 -21 151 -65t48 -114q0 -58 -31 -104.5t-87.5 -72.5t-132.5 -26zM309 765l-114 160h56l93 -111l94 111h55l-114 -160h-70zM301 971v74h88v-74h-88z" />
    <glyph glyph-name="Scedilla" unicode="&#x15e;" horiz-adv-x="657" 
d="M344 -8q-59 0 -111 8.5t-95 27.5t-74 47l28 59q36 -30 74.5 -47t83 -23.5t94.5 -6.5q85 0 133 36t48 100q0 33 -15.5 55t-48.5 36t-85 24l-117 24q-96 19 -137.5 65.5t-41.5 117.5q0 60 34.5 104.5t95 69t137.5 24.5q50 0 93 -9.5t78.5 -29t64.5 -48.5l-29 -59
q-44 45 -94.5 63t-113.5 18q-55 0 -99.5 -15.5t-70.5 -45t-26 -74.5q0 -47 29.5 -75t100.5 -42l116 -22q103 -21 151 -65t48 -114q0 -58 -31 -104.5t-87.5 -72.5t-132.5 -26zM332 -193q-24 0 -48.5 5t-39.5 14l12 43q19 -9 35.5 -13t41.5 -4q27 0 43.5 9t16.5 28
q0 15 -10.5 22.5t-29.5 7.5q-9 0 -21.5 -2t-28.5 -7l-17 15l15 95h48l-13 -77l-22 8q11 3 25 5t26 2q23 0 41.5 -7.5t30.5 -23t12 -38.5q0 -25 -15.5 -43.5t-41.5 -28.5t-60 -10z" />
    <glyph glyph-name="Scircumflex" unicode="&#x15c;" horiz-adv-x="657" 
d="M344 -8q-59 0 -111 8.5t-95 27.5t-74 47l28 59q36 -30 74.5 -47t83 -23.5t94.5 -6.5q85 0 133 36t48 100q0 33 -15.5 55t-48.5 36t-85 24l-117 24q-96 19 -137.5 65.5t-41.5 117.5q0 60 34.5 104.5t95 69t137.5 24.5q50 0 93 -9.5t78.5 -29t64.5 -48.5l-29 -59
q-44 45 -94.5 63t-113.5 18q-55 0 -99.5 -15.5t-70.5 -45t-26 -74.5q0 -47 29.5 -75t100.5 -42l116 -22q103 -21 151 -65t48 -114q0 -58 -31 -104.5t-87.5 -72.5t-132.5 -26zM184 765l125 171h70l125 -171h-58l-102 122l-103 -122h-57z" />
    <glyph glyph-name="uni0218" unicode="&#x218;" horiz-adv-x="657" 
d="M344 -8q-59 0 -111 8.5t-95 27.5t-74 47l28 59q36 -30 74.5 -47t83 -23.5t94.5 -6.5q85 0 133 36t48 100q0 33 -15.5 55t-48.5 36t-85 24l-117 24q-96 19 -137.5 65.5t-41.5 117.5q0 60 34.5 104.5t95 69t137.5 24.5q50 0 93 -9.5t78.5 -29t64.5 -48.5l-29 -59
q-44 45 -94.5 63t-113.5 18q-55 0 -99.5 -15.5t-70.5 -45t-26 -74.5q0 -47 29.5 -75t100.5 -42l116 -22q103 -21 151 -65t48 -114q0 -58 -31 -104.5t-87.5 -72.5t-132.5 -26zM322 -284l-35 27q24 23 32.5 48t8.5 52l13 -10h-59v85h92v-66q0 -40 -12.5 -74t-39.5 -62z" />
    <glyph glyph-name="uni1E60" unicode="&#x1e60;" horiz-adv-x="657" 
d="M344 -8q-59 0 -111 8.5t-95 27.5t-74 47l28 59q36 -30 74.5 -47t83 -23.5t94.5 -6.5q85 0 133 36t48 100q0 33 -15.5 55t-48.5 36t-85 24l-117 24q-96 19 -137.5 65.5t-41.5 117.5q0 60 34.5 104.5t95 69t137.5 24.5q50 0 93 -9.5t78.5 -29t64.5 -48.5l-29 -59
q-44 45 -94.5 63t-113.5 18q-55 0 -99.5 -15.5t-70.5 -45t-26 -74.5q0 -47 29.5 -75t100.5 -42l116 -22q103 -21 151 -65t48 -114q0 -58 -31 -104.5t-87.5 -72.5t-132.5 -26zM299 809v87h89v-87h-89z" />
    <glyph glyph-name="uni1E62" unicode="&#x1e62;" horiz-adv-x="657" 
d="M344 -8q-59 0 -111 8.5t-95 27.5t-74 47l28 59q36 -30 74.5 -47t83 -23.5t94.5 -6.5q85 0 133 36t48 100q0 33 -15.5 55t-48.5 36t-85 24l-117 24q-96 19 -137.5 65.5t-41.5 117.5q0 60 34.5 104.5t95 69t137.5 24.5q50 0 93 -9.5t78.5 -29t64.5 -48.5l-29 -59
q-44 45 -94.5 63t-113.5 18q-55 0 -99.5 -15.5t-70.5 -45t-26 -74.5q0 -47 29.5 -75t100.5 -42l116 -22q103 -21 151 -65t48 -114q0 -58 -31 -104.5t-87.5 -72.5t-132.5 -26zM286 -184v83h84v-83h-84z" />
    <glyph glyph-name="uni1E68" unicode="&#x1e68;" horiz-adv-x="657" 
d="M344 -8q-59 0 -111 8.5t-95 27.5t-74 47l28 59q36 -30 74.5 -47t83 -23.5t94.5 -6.5q85 0 133 36t48 100q0 33 -15.5 55t-48.5 36t-85 24l-117 24q-96 19 -137.5 65.5t-41.5 117.5q0 60 34.5 104.5t95 69t137.5 24.5q50 0 93 -9.5t78.5 -29t64.5 -48.5l-29 -59
q-44 45 -94.5 63t-113.5 18q-55 0 -99.5 -15.5t-70.5 -45t-26 -74.5q0 -47 29.5 -75t100.5 -42l116 -22q103 -21 151 -65t48 -114q0 -58 -31 -104.5t-87.5 -72.5t-132.5 -26zM286 -184v83h84v-83h-84zM299 809v87h89v-87h-89z" />
    <glyph glyph-name="uni1E9E" unicode="&#x1e9e;" horiz-adv-x="764" 
d="M450 -8q-58 0 -105 16t-89 49l26 58q44 -33 80.5 -46t85.5 -13q76 0 118.5 35.5t42.5 102.5t-44.5 99.5t-128.5 32.5h-132v61h105q43 0 78 15.5t56.5 45.5t21.5 75q0 64 -45 95t-128 31q-106 0 -158 -45t-52 -148v-456h-69v461q0 83 32.5 139.5t94.5 84.5t152 28
q76 0 130.5 -22.5t84 -64t29.5 -98.5q0 -38 -13.5 -70.5t-36.5 -56t-54 -36.5v-1q65 -11 106 -56t41 -115q0 -60 -26.5 -105.5t-78 -70.5t-124.5 -25z" />
    <glyph glyph-name="T" unicode="T" horiz-adv-x="640" 
d="M285 0v641h-259v64h588v-64h-259v-641h-70z" />
    <glyph glyph-name="Tbar" unicode="&#x166;" horiz-adv-x="640" 
d="M285 0v641h-259v64h588v-64h-259v-641h-70zM136 321v61h368v-61h-368z" />
    <glyph glyph-name="Tcaron" unicode="&#x164;" horiz-adv-x="640" 
d="M285 0v641h-259v64h588v-64h-259v-641h-70zM285 765l-125 171h58l102 -122l103 122h57l-125 -171h-70z" />
    <glyph glyph-name="uni0162" unicode="&#x162;" horiz-adv-x="640" 
d="M285 0v641h-259v64h588v-64h-259v-641h-70zM324 -193q-24 0 -48.5 5t-39.5 14l12 43q19 -9 35.5 -13t41.5 -4q27 0 43.5 9t16.5 28q0 15 -10.5 22.5t-29.5 7.5q-9 0 -21.5 -2t-28.5 -7l-17 15l15 95h48l-13 -77l-22 8q11 3 25 5t26 2q23 0 41.5 -7.5t30.5 -23t12 -38.5
q0 -25 -15.5 -43.5t-41.5 -28.5t-60 -10z" />
    <glyph glyph-name="uni021A" unicode="&#x21a;" horiz-adv-x="640" 
d="M285 0v641h-259v64h588v-64h-259v-641h-70zM314 -284l-35 27q24 23 32.5 48t8.5 52l13 -10h-59v85h92v-66q0 -40 -12.5 -74t-39.5 -62z" />
    <glyph glyph-name="uni1E6C" unicode="&#x1e6c;" horiz-adv-x="640" 
d="M285 0v641h-259v64h588v-64h-259v-641h-70zM278 -184v83h84v-83h-84z" />
    <glyph glyph-name="uni1E6E" unicode="&#x1e6e;" horiz-adv-x="640" 
d="M285 0v641h-259v64h588v-64h-259v-641h-70zM163 -158v57h314v-57h-314z" />
    <glyph glyph-name="U" unicode="U" horiz-adv-x="756" 
d="M378 -8q-135 0 -205 70.5t-70 207.5v435h70v-437q0 -109 52.5 -159t152.5 -50t152 50t52 159v437h71v-435q0 -137 -70.5 -207.5t-204.5 -70.5z" />
    <glyph glyph-name="Uacute" unicode="&#xda;" horiz-adv-x="756" 
d="M378 -8q-135 0 -205 70.5t-70 207.5v435h70v-437q0 -109 52.5 -159t152.5 -50t152 50t52 159v437h71v-435q0 -137 -70.5 -207.5t-204.5 -70.5zM348 765l118 171h89l-146 -171h-61z" />
    <glyph glyph-name="Ubreve" unicode="&#x16c;" horiz-adv-x="756" 
d="M378 -8q-135 0 -205 70.5t-70 207.5v435h70v-437q0 -109 52.5 -159t152.5 -50t152 50t52 159v437h71v-435q0 -137 -70.5 -207.5t-204.5 -70.5zM378 760q-70 0 -116 45.5t-52 124.5l51 7q5 -56 35 -89t82 -33q54 0 83.5 34t33.5 88l52 -7q-6 -79 -53 -124.5t-116 -45.5z
" />
    <glyph glyph-name="Ucircumflex" unicode="&#xdb;" horiz-adv-x="756" 
d="M378 -8q-135 0 -205 70.5t-70 207.5v435h70v-437q0 -109 52.5 -159t152.5 -50t152 50t52 159v437h71v-435q0 -137 -70.5 -207.5t-204.5 -70.5zM218 765l125 171h70l125 -171h-58l-102 122l-103 -122h-57z" />
    <glyph glyph-name="uni0214" unicode="&#x214;" horiz-adv-x="756" 
d="M378 -8q-135 0 -205 70.5t-70 207.5v435h70v-437q0 -109 52.5 -159t152.5 -50t152 50t52 159v437h71v-435q0 -137 -70.5 -207.5t-204.5 -70.5zM417 765l-118 171h80l85 -171h-47zM291 765l-121 171h79l89 -171h-47z" />
    <glyph glyph-name="Udieresis" unicode="&#xdc;" horiz-adv-x="756" 
d="M378 -8q-135 0 -205 70.5t-70 207.5v435h70v-437q0 -109 52.5 -159t152.5 -50t152 50t52 159v437h71v-435q0 -137 -70.5 -207.5t-204.5 -70.5zM432 809v80h82v-80h-82zM242 809v80h82v-80h-82z" />
    <glyph glyph-name="uni1EE4" unicode="&#x1ee4;" horiz-adv-x="756" 
d="M378 -8q-135 0 -205 70.5t-70 207.5v435h70v-437q0 -109 52.5 -159t152.5 -50t152 50t52 159v437h71v-435q0 -137 -70.5 -207.5t-204.5 -70.5zM336 -184v83h84v-83h-84z" />
    <glyph glyph-name="Ugrave" unicode="&#xd9;" horiz-adv-x="756" 
d="M378 -8q-135 0 -205 70.5t-70 207.5v435h70v-437q0 -109 52.5 -159t152.5 -50t152 50t52 159v437h71v-435q0 -137 -70.5 -207.5t-204.5 -70.5zM350 765l-146 171h87l118 -171h-59z" />
    <glyph glyph-name="uni1EE6" unicode="&#x1ee6;" horiz-adv-x="756" 
d="M378 -8q-135 0 -205 70.5t-70 207.5v435h70v-437q0 -109 52.5 -159t152.5 -50t152 50t52 159v437h71v-435q0 -137 -70.5 -207.5t-204.5 -70.5zM352 765v16q0 20 9.5 33t22 22.5t22.5 18t10 19.5t-9.5 16t-31.5 5q-16 0 -34 -2.5t-37 -9.5l-13 41q18 9 41.5 14t50.5 5
q45 0 70 -16t25 -43q0 -22 -11 -35t-25.5 -22.5t-25.5 -20t-11 -29.5v-12h-53z" />
    <glyph glyph-name="Uhorn" unicode="&#x1af;" horiz-adv-x="756" 
d="M378 -8q-135 0 -205 70.5t-70 207.5v435h70v-437q0 -109 52.5 -159t152.5 -50t152 50t52 159v437h71v-435q0 -137 -70.5 -207.5t-204.5 -70.5zM629 655l-40 28v22q43 1 66.5 13t33.5 37.5t10 62.5v17h71v-28q0 -43 -16 -76.5t-47.5 -53t-77.5 -22.5z" />
    <glyph glyph-name="uni1EE8" unicode="&#x1ee8;" horiz-adv-x="756" 
d="M378 -8q-135 0 -205 70.5t-70 207.5v435h70v-437q0 -109 52.5 -159t152.5 -50t152 50t52 159v437h71v-435q0 -137 -70.5 -207.5t-204.5 -70.5zM629 655l-40 28v22q43 1 66.5 13t33.5 37.5t10 62.5v17h71v-28q0 -43 -16 -76.5t-47.5 -53t-77.5 -22.5zM348 765l118 171h89
l-146 -171h-61z" />
    <glyph glyph-name="uni1EF0" unicode="&#x1ef0;" horiz-adv-x="756" 
d="M378 -8q-135 0 -205 70.5t-70 207.5v435h70v-437q0 -109 52.5 -159t152.5 -50t152 50t52 159v437h71v-435q0 -137 -70.5 -207.5t-204.5 -70.5zM629 655l-40 28v22q43 1 66.5 13t33.5 37.5t10 62.5v17h71v-28q0 -43 -16 -76.5t-47.5 -53t-77.5 -22.5zM336 -184v83h84v-83
h-84z" />
    <glyph glyph-name="uni1EEA" unicode="&#x1eea;" horiz-adv-x="756" 
d="M378 -8q-135 0 -205 70.5t-70 207.5v435h70v-437q0 -109 52.5 -159t152.5 -50t152 50t52 159v437h71v-435q0 -137 -70.5 -207.5t-204.5 -70.5zM629 655l-40 28v22q43 1 66.5 13t33.5 37.5t10 62.5v17h71v-28q0 -43 -16 -76.5t-47.5 -53t-77.5 -22.5zM350 765l-146 171h87
l118 -171h-59z" />
    <glyph glyph-name="uni1EEC" unicode="&#x1eec;" horiz-adv-x="756" 
d="M378 -8q-135 0 -205 70.5t-70 207.5v435h70v-437q0 -109 52.5 -159t152.5 -50t152 50t52 159v437h71v-435q0 -137 -70.5 -207.5t-204.5 -70.5zM629 655l-40 28v22q43 1 66.5 13t33.5 37.5t10 62.5v17h71v-28q0 -43 -16 -76.5t-47.5 -53t-77.5 -22.5zM352 765v16
q0 20 9.5 33t22 22.5t22.5 18t10 19.5t-9.5 16t-31.5 5q-16 0 -34 -2.5t-37 -9.5l-13 41q18 9 41.5 14t50.5 5q45 0 70 -16t25 -43q0 -22 -11 -35t-25.5 -22.5t-25.5 -20t-11 -29.5v-12h-53z" />
    <glyph glyph-name="uni1EEE" unicode="&#x1eee;" horiz-adv-x="756" 
d="M378 -8q-135 0 -205 70.5t-70 207.5v435h70v-437q0 -109 52.5 -159t152.5 -50t152 50t52 159v437h71v-435q0 -137 -70.5 -207.5t-204.5 -70.5zM629 655l-40 28v22q43 1 66.5 13t33.5 37.5t10 62.5v17h71v-28q0 -43 -16 -76.5t-47.5 -53t-77.5 -22.5zM232 784l-49 4
q5 42 19.5 71t38.5 44t56 15q28 0 50 -13t42 -30q18 -13 34 -23t33 -10q31 0 45.5 21t21.5 58l47 -3q-4 -41 -19 -70.5t-39 -44.5t-55 -15q-28 0 -50 13.5t-43 29.5q-17 14 -33.5 23.5t-33.5 9.5q-30 0 -44 -20t-21 -60z" />
    <glyph glyph-name="Uhungarumlaut" unicode="&#x170;" horiz-adv-x="756" 
d="M378 -8q-135 0 -205 70.5t-70 207.5v435h70v-437q0 -109 52.5 -159t152.5 -50t152 50t52 159v437h71v-435q0 -137 -70.5 -207.5t-204.5 -70.5zM292 765l85 171h80l-118 -171h-47zM417 765l90 171h79l-122 -171h-47z" />
    <glyph glyph-name="uni0216" unicode="&#x216;" horiz-adv-x="756" 
d="M378 -8q-135 0 -205 70.5t-70 207.5v435h70v-437q0 -109 52.5 -159t152.5 -50t152 50t52 159v437h71v-435q0 -137 -70.5 -207.5t-204.5 -70.5zM262 760l-52 7q6 79 52 124.5t116 45.5q71 0 117 -46.5t52 -123.5l-52 -7q-4 54 -33.5 87.5t-83.5 33.5q-51 0 -81.5 -32
t-34.5 -89z" />
    <glyph glyph-name="Umacron" unicode="&#x16a;" horiz-adv-x="756" 
d="M378 -8q-135 0 -205 70.5t-70 207.5v435h70v-437q0 -109 52.5 -159t152.5 -50t152 50t52 159v437h71v-435q0 -137 -70.5 -207.5t-204.5 -70.5zM215 816v57h326v-57h-326z" />
    <glyph glyph-name="uni1E7A" unicode="&#x1e7a;" horiz-adv-x="756" 
d="M378 -8q-135 0 -205 70.5t-70 207.5v435h70v-437q0 -109 52.5 -159t152.5 -50t152 50t52 159v437h71v-435q0 -137 -70.5 -207.5t-204.5 -70.5zM221 802v55h314v-55h-314zM243 912v74h83v-74h-83zM430 912v74h83v-74h-83z" />
    <glyph glyph-name="Uogonek" unicode="&#x172;" horiz-adv-x="756" 
d="M378 -8q-135 0 -205 70.5t-70 207.5v435h70v-437q0 -109 52.5 -159t152.5 -50t152 50t52 159v437h71v-435q0 -137 -70.5 -207.5t-204.5 -70.5zM415 -194q-46 0 -76 26t-30 69q0 39 27 75t71 59l28 -35q-15 -7 -31 -19.5t-26.5 -30.5t-10.5 -39q0 -29 16.5 -41t39.5 -12
q12 0 25.5 3t26.5 9l17 -47q-13 -7 -32.5 -12t-44.5 -5z" />
    <glyph glyph-name="Uring" unicode="&#x16e;" horiz-adv-x="756" 
d="M378 -8q-135 0 -205 70.5t-70 207.5v435h70v-437q0 -109 52.5 -159t152.5 -50t152 50t52 159v437h71v-435q0 -137 -70.5 -207.5t-204.5 -70.5zM378 758q-34 0 -61 15.5t-42.5 41t-15.5 57.5t15.5 58t42.5 41t61 15t61 -15t42.5 -41t15.5 -58t-15.5 -57.5t-42.5 -41
t-61 -15.5zM378 800q32 0 52.5 20.5t20.5 52.5q0 31 -20.5 51t-52.5 20q-31 0 -52 -20t-21 -51q0 -32 20.5 -52.5t52.5 -20.5z" />
    <glyph glyph-name="Utilde" unicode="&#x168;" horiz-adv-x="756" 
d="M378 -8q-135 0 -205 70.5t-70 207.5v435h70v-437q0 -109 52.5 -159t152.5 -50t152 50t52 159v437h71v-435q0 -137 -70.5 -207.5t-204.5 -70.5zM221 783l-50 3q6 64 37 98.5t80 34.5q28 0 54 -13t51 -30q22 -14 40.5 -24t35.5 -10q29 0 45 20t23 59l49 -2
q-6 -64 -37 -98.5t-80 -34.5q-28 0 -54 13.5t-51 29.5q-22 15 -41 24.5t-36 9.5q-28 0 -44 -20t-22 -60z" />
    <glyph glyph-name="uni1E78" unicode="&#x1e78;" horiz-adv-x="756" 
d="M378 -8q-135 0 -205 70.5t-70 207.5v435h70v-437q0 -109 52.5 -159t152.5 -50t152 50t52 159v437h71v-435q0 -137 -70.5 -207.5t-204.5 -70.5zM350 885l88 145h86l-117 -145h-57zM444 768q-22 0 -40 9t-36 21q-14 11 -27.5 17.5t-26.5 6.5q-22 0 -33 -13.5t-16 -42.5
l-46 2q3 35 14.5 57.5t31.5 34.5t47 12q23 0 41 -9.5t35 -21.5q16 -10 29 -17t25 -7q23 0 34 14t15 42l47 -2q-4 -51 -29 -77t-65 -26z" />
    <glyph glyph-name="V" unicode="V" horiz-adv-x="683" 
d="M310 0l-303 705h76l259 -617h-1l259 617h75l-302 -705h-63z" />
    <glyph glyph-name="W" unicode="W" horiz-adv-x="1101" 
d="M272 0l-220 705h73l186 -614h-2l211 614h61l211 -615h-1l187 615h71l-220 -705h-71l-207 604v0l-210 -604h-69z" />
    <glyph glyph-name="Wacute" unicode="&#x1e82;" horiz-adv-x="1101" 
d="M272 0l-220 705h73l186 -614h-2l211 614h61l211 -615h-1l187 615h71l-220 -705h-71l-207 604v0l-210 -604h-69zM520 765l118 171h89l-146 -171h-61z" />
    <glyph glyph-name="Wcircumflex" unicode="&#x174;" horiz-adv-x="1101" 
d="M272 0l-220 705h73l186 -614h-2l211 614h61l211 -615h-1l187 615h71l-220 -705h-71l-207 604v0l-210 -604h-69zM390 765l125 171h70l125 -171h-58l-102 122l-103 -122h-57z" />
    <glyph glyph-name="Wdieresis" unicode="&#x1e84;" horiz-adv-x="1101" 
d="M272 0l-220 705h73l186 -614h-2l211 614h61l211 -615h-1l187 615h71l-220 -705h-71l-207 604v0l-210 -604h-69zM604 809v80h82v-80h-82zM414 809v80h82v-80h-82z" />
    <glyph glyph-name="Wgrave" unicode="&#x1e80;" horiz-adv-x="1101" 
d="M272 0l-220 705h73l186 -614h-2l211 614h61l211 -615h-1l187 615h71l-220 -705h-71l-207 604v0l-210 -604h-69zM522 765l-146 171h87l118 -171h-59z" />
    <glyph glyph-name="X" unicode="X" horiz-adv-x="671" 
d="M32 0l258 374l1 -23l-244 354h81l207 -301h1l208 301h81l-246 -354v24l260 -375h-82l-223 323v0l-221 -323h-81z" />
    <glyph glyph-name="Y" unicode="Y" horiz-adv-x="616" 
d="M273 0v367l13 -59l-278 397h81l219 -314h1l219 314h79l-277 -397l13 59v-367h-70z" />
    <glyph glyph-name="Yacute" unicode="&#xdd;" horiz-adv-x="616" 
d="M273 0v367l13 -59l-278 397h81l219 -314h1l219 314h79l-277 -397l13 59v-367h-70zM278 765l118 171h89l-146 -171h-61z" />
    <glyph glyph-name="Ycircumflex" unicode="&#x176;" horiz-adv-x="616" 
d="M273 0v367l13 -59l-278 397h81l219 -314h1l219 314h79l-277 -397l13 59v-367h-70zM148 765l125 171h70l125 -171h-58l-102 122l-103 -122h-57z" />
    <glyph glyph-name="Ydieresis" unicode="&#x178;" horiz-adv-x="616" 
d="M273 0v367l13 -59l-278 397h81l219 -314h1l219 314h79l-277 -397l13 59v-367h-70zM362 809v80h82v-80h-82zM172 809v80h82v-80h-82z" />
    <glyph glyph-name="uni1E8E" unicode="&#x1e8e;" horiz-adv-x="616" 
d="M273 0v367l13 -59l-278 397h81l219 -314h1l219 314h79l-277 -397l13 59v-367h-70zM263 809v87h89v-87h-89z" />
    <glyph glyph-name="uni1EF4" unicode="&#x1ef4;" horiz-adv-x="616" 
d="M273 0v367l13 -59l-278 397h81l219 -314h1l219 314h79l-277 -397l13 59v-367h-70zM266 -184v83h84v-83h-84z" />
    <glyph glyph-name="Ygrave" unicode="&#x1ef2;" horiz-adv-x="616" 
d="M273 0v367l13 -59l-278 397h81l219 -314h1l219 314h79l-277 -397l13 59v-367h-70zM280 765l-146 171h87l118 -171h-59z" />
    <glyph glyph-name="uni01B3" unicode="&#x1b3;" horiz-adv-x="644" 
d="M273 0v367l13 -59l-278 397h81l219 -314h1l172 246q27 41 60.5 58.5t72.5 17.5q17 0 28 -1.5t24 -7.5v-59q-10 4 -20.5 6t-25.5 2q-26 0 -46 -11.5t-37 -36.5l-207 -297l13 59v-367h-70z" />
    <glyph glyph-name="uni1EF6" unicode="&#x1ef6;" horiz-adv-x="616" 
d="M273 0v367l13 -59l-278 397h81l219 -314h1l219 314h79l-277 -397l13 59v-367h-70zM282 765v16q0 20 9.5 33t22 22.5t22.5 18t10 19.5t-9.5 16t-31.5 5q-16 0 -34 -2.5t-37 -9.5l-13 41q18 9 41.5 14t50.5 5q45 0 70 -16t25 -43q0 -22 -11 -35t-25.5 -22.5t-25.5 -20
t-11 -29.5v-12h-53z" />
    <glyph glyph-name="uni0232" unicode="&#x232;" horiz-adv-x="616" 
d="M273 0v367l13 -59l-278 397h81l219 -314h1l219 314h79l-277 -397l13 59v-367h-70zM145 816v57h326v-57h-326z" />
    <glyph glyph-name="uni1EF8" unicode="&#x1ef8;" horiz-adv-x="616" 
d="M273 0v367l13 -59l-278 397h81l219 -314h1l219 314h79l-277 -397l13 59v-367h-70zM151 783l-50 3q6 64 37 98.5t80 34.5q28 0 54 -13t51 -30q22 -14 40.5 -24t35.5 -10q29 0 45 20t23 59l49 -2q-6 -64 -37 -98.5t-80 -34.5q-28 0 -54 13.5t-51 29.5q-22 15 -41 24.5
t-36 9.5q-28 0 -44 -20t-22 -60z" />
    <glyph glyph-name="Z" unicode="Z" horiz-adv-x="603" 
d="M51 0v46l432 632l10 -37h-442v64h499v-45l-431 -633l-10 37h452v-64h-510z" />
    <glyph glyph-name="Zacute" unicode="&#x179;" horiz-adv-x="603" 
d="M51 0v46l432 632l10 -37h-442v64h499v-45l-431 -633l-10 37h452v-64h-510zM273 765l118 171h89l-146 -171h-61z" />
    <glyph glyph-name="Zcaron" unicode="&#x17d;" horiz-adv-x="603" 
d="M51 0v46l432 632l10 -37h-442v64h499v-45l-431 -633l-10 37h452v-64h-510zM268 765l-125 171h58l102 -122l103 122h57l-125 -171h-70z" />
    <glyph glyph-name="Zdotaccent" unicode="&#x17b;" horiz-adv-x="603" 
d="M51 0v46l432 632l10 -37h-442v64h499v-45l-431 -633l-10 37h452v-64h-510zM258 809v87h89v-87h-89z" />
    <glyph glyph-name="uni1E92" unicode="&#x1e92;" horiz-adv-x="603" 
d="M51 0v46l432 632l10 -37h-442v64h499v-45l-431 -633l-10 37h452v-64h-510zM268 -184v83h84v-83h-84z" />
    <glyph glyph-name="Iacute_J.loclNLD" horiz-adv-x="690" 
d="M113 0v705h70v-705h-70zM118 765l118 171h89l-146 -171h-61zM308 -7l-5 64l79 4q36 2 64 18.5t44.5 46t16.5 67.5v512h70v-516q0 -53 -24.5 -95.5t-67 -67.5t-96.5 -29zM512 765l118 171h89l-146 -171h-61z" />
    <glyph glyph-name="I_J.loclNLD" horiz-adv-x="690" 
d="M113 0v705h70v-705h-70zM308 -7l-5 64l79 4q36 2 64 18.5t44.5 46t16.5 67.5v512h70v-516q0 -53 -24.5 -95.5t-67 -67.5t-96.5 -29z" />
    <glyph glyph-name="a" unicode="a" horiz-adv-x="611" 
d="M261 -8q-52 0 -94 19t-66 52t-24 74q0 58 33.5 90.5t100.5 45.5t168 13h80v-54h-76q-62 0 -106.5 -4t-73 -14t-42 -27.5t-13.5 -45.5q0 -44 35.5 -67t87.5 -23q47 0 86.5 21.5t64 56.5t24.5 77v116q0 61 -36.5 90.5t-106.5 29.5q-46 0 -89.5 -12t-90.5 -41l-25 55
q30 19 65 32t72 20t73 7q62 0 108.5 -19.5t72.5 -60.5t26 -105v-318h-63v110h-3q-14 -30 -40 -57.5t-63 -44t-85 -16.5z" />
    <glyph glyph-name="aacute" unicode="&#xe1;" horiz-adv-x="611" 
d="M261 -8q-52 0 -94 19t-66 52t-24 74q0 58 33.5 90.5t100.5 45.5t168 13h80v-54h-76q-62 0 -106.5 -4t-73 -14t-42 -27.5t-13.5 -45.5q0 -44 35.5 -67t87.5 -23q47 0 86.5 21.5t64 56.5t24.5 77v116q0 61 -36.5 90.5t-106.5 29.5q-46 0 -89.5 -12t-90.5 -41l-25 55
q30 19 65 32t72 20t73 7q62 0 108.5 -19.5t72.5 -60.5t26 -105v-318h-63v110h-3q-14 -30 -40 -57.5t-63 -44t-85 -16.5zM280 559l104 194h81l-129 -194h-56z" />
    <glyph glyph-name="abreve" unicode="&#x103;" horiz-adv-x="611" 
d="M261 -8q-52 0 -94 19t-66 52t-24 74q0 58 33.5 90.5t100.5 45.5t168 13h80v-54h-76q-62 0 -106.5 -4t-73 -14t-42 -27.5t-13.5 -45.5q0 -44 35.5 -67t87.5 -23q47 0 86.5 21.5t64 56.5t24.5 77v116q0 61 -36.5 90.5t-106.5 29.5q-46 0 -89.5 -12t-90.5 -41l-25 55
q30 19 65 32t72 20t73 7q62 0 108.5 -19.5t72.5 -60.5t26 -105v-318h-63v110h-3q-14 -30 -40 -57.5t-63 -44t-85 -16.5zM309 556q-46 0 -79.5 23.5t-52 67t-21.5 101.5l51 6q4 -69 29 -105.5t73 -36.5q47 0 72.5 36.5t29.5 105.5l51 -6q-2 -58 -21.5 -101.5t-52.5 -67
t-79 -23.5z" />
    <glyph glyph-name="uni1EAF" unicode="&#x1eaf;" horiz-adv-x="611" 
d="M261 -8q-52 0 -94 19t-66 52t-24 74q0 58 33.5 90.5t100.5 45.5t168 13h80v-54h-76q-62 0 -106.5 -4t-73 -14t-42 -27.5t-13.5 -45.5q0 -44 35.5 -67t87.5 -23q47 0 86.5 21.5t64 56.5t24.5 77v116q0 61 -36.5 90.5t-106.5 29.5q-46 0 -89.5 -12t-90.5 -41l-25 55
q30 19 65 32t72 20t73 7q62 0 108.5 -19.5t72.5 -60.5t26 -105v-318h-63v110h-3q-14 -30 -40 -57.5t-63 -44t-85 -16.5zM309 556q-68 0 -110 41t-47 111l49 5q5 -51 33.5 -78t74.5 -27q47 0 75.5 26.5t33.5 78.5l49 -5q-5 -70 -47 -111t-111 -41zM276 674l90 144h79
l-116 -144h-53z" />
    <glyph glyph-name="uni1EB7" unicode="&#x1eb7;" horiz-adv-x="611" 
d="M261 -8q-52 0 -94 19t-66 52t-24 74q0 58 33.5 90.5t100.5 45.5t168 13h80v-54h-76q-62 0 -106.5 -4t-73 -14t-42 -27.5t-13.5 -45.5q0 -44 35.5 -67t87.5 -23q47 0 86.5 21.5t64 56.5t24.5 77v116q0 61 -36.5 90.5t-106.5 29.5q-46 0 -89.5 -12t-90.5 -41l-25 55
q30 19 65 32t72 20t73 7q62 0 108.5 -19.5t72.5 -60.5t26 -105v-318h-63v110h-3q-14 -30 -40 -57.5t-63 -44t-85 -16.5zM228 -184v83h84v-83h-84zM309 556q-46 0 -79.5 23.5t-52 67t-21.5 101.5l51 6q4 -69 29 -105.5t73 -36.5q47 0 72.5 36.5t29.5 105.5l51 -6
q-2 -58 -21.5 -101.5t-52.5 -67t-79 -23.5z" />
    <glyph glyph-name="uni1EB1" unicode="&#x1eb1;" horiz-adv-x="611" 
d="M261 -8q-52 0 -94 19t-66 52t-24 74q0 58 33.5 90.5t100.5 45.5t168 13h80v-54h-76q-62 0 -106.5 -4t-73 -14t-42 -27.5t-13.5 -45.5q0 -44 35.5 -67t87.5 -23q47 0 86.5 21.5t64 56.5t24.5 77v116q0 61 -36.5 90.5t-106.5 29.5q-46 0 -89.5 -12t-90.5 -41l-25 55
q30 19 65 32t72 20t73 7q62 0 108.5 -19.5t72.5 -60.5t26 -105v-318h-63v110h-3q-14 -30 -40 -57.5t-63 -44t-85 -16.5zM309 556q-68 0 -110 41t-47 111l49 5q5 -51 33.5 -78t74.5 -27q47 0 75.5 26.5t33.5 78.5l49 -5q-5 -70 -47 -111t-111 -41zM290 674l-112 144h80
l86 -144h-54z" />
    <glyph glyph-name="uni1EB3" unicode="&#x1eb3;" horiz-adv-x="611" 
d="M261 -8q-52 0 -94 19t-66 52t-24 74q0 58 33.5 90.5t100.5 45.5t168 13h80v-54h-76q-62 0 -106.5 -4t-73 -14t-42 -27.5t-13.5 -45.5q0 -44 35.5 -67t87.5 -23q47 0 86.5 21.5t64 56.5t24.5 77v116q0 61 -36.5 90.5t-106.5 29.5q-46 0 -89.5 -12t-90.5 -41l-25 55
q30 19 65 32t72 20t73 7q62 0 108.5 -19.5t72.5 -60.5t26 -105v-318h-63v110h-3q-14 -30 -40 -57.5t-63 -44t-85 -16.5zM309 556q-68 0 -110 41t-47 111l49 5q5 -51 33.5 -78t74.5 -27q47 0 75.5 26.5t33.5 78.5l49 -5q-5 -69 -47 -110.5t-111 -41.5zM283 674q0 22 9.5 35
t22 22t22 16.5t9.5 17.5q0 13 -13.5 17t-35.5 4q-11 0 -26.5 -2.5t-34.5 -9.5l-12 39q17 9 38.5 13t50.5 4q45 0 68.5 -14.5t23.5 -38.5q0 -20 -10.5 -32t-24.5 -21.5t-24.5 -20.5t-10.5 -29h-52z" />
    <glyph glyph-name="uni1EB5" unicode="&#x1eb5;" horiz-adv-x="611" 
d="M261 -8q-52 0 -94 19t-66 52t-24 74q0 58 33.5 90.5t100.5 45.5t168 13h80v-54h-76q-62 0 -106.5 -4t-73 -14t-42 -27.5t-13.5 -45.5q0 -44 35.5 -67t87.5 -23q47 0 86.5 21.5t64 56.5t24.5 77v116q0 61 -36.5 90.5t-106.5 29.5q-46 0 -89.5 -12t-90.5 -41l-25 55
q30 19 65 32t72 20t73 7q62 0 108.5 -19.5t72.5 -60.5t26 -105v-318h-63v110h-3q-14 -30 -40 -57.5t-63 -44t-85 -16.5zM309 556q-61 0 -103 31.5t-54 84.5l48 8q10 -34 39 -53t70 -19q42 0 70.5 19t38.5 53l49 -8q-12 -52 -54 -84t-104 -32zM196 723l-46 2q3 35 14.5 57.5
t31.5 34.5t47 12q23 0 41 -9.5t36 -21.5q15 -10 28 -17t25 -7q23 0 34 14t15 42l47 -2q-4 -51 -29 -77.5t-65 -26.5q-22 0 -40 9.5t-36 21.5q-14 10 -27 17t-27 7q-22 0 -33 -13.5t-16 -42.5z" />
    <glyph glyph-name="uni01CE" unicode="&#x1ce;" horiz-adv-x="611" 
d="M261 -8q-52 0 -94 19t-66 52t-24 74q0 58 33.5 90.5t100.5 45.5t168 13h80v-54h-76q-62 0 -106.5 -4t-73 -14t-42 -27.5t-13.5 -45.5q0 -44 35.5 -67t87.5 -23q47 0 86.5 21.5t64 56.5t24.5 77v116q0 61 -36.5 90.5t-106.5 29.5q-46 0 -89.5 -12t-90.5 -41l-25 55
q30 19 65 32t72 20t73 7q62 0 108.5 -19.5t72.5 -60.5t26 -105v-318h-63v110h-3q-14 -30 -40 -57.5t-63 -44t-85 -16.5zM273 559l-111 194h55l92 -143l93 143h54l-111 -194h-72z" />
    <glyph glyph-name="acircumflex" unicode="&#xe2;" horiz-adv-x="611" 
d="M261 -8q-52 0 -94 19t-66 52t-24 74q0 58 33.5 90.5t100.5 45.5t168 13h80v-54h-76q-62 0 -106.5 -4t-73 -14t-42 -27.5t-13.5 -45.5q0 -44 35.5 -67t87.5 -23q47 0 86.5 21.5t64 56.5t24.5 77v116q0 61 -36.5 90.5t-106.5 29.5q-46 0 -89.5 -12t-90.5 -41l-25 55
q30 19 65 32t72 20t73 7q62 0 108.5 -19.5t72.5 -60.5t26 -105v-318h-63v110h-3q-14 -30 -40 -57.5t-63 -44t-85 -16.5zM162 566l111 187h72l111 -187h-54l-93 136l-92 -136h-55z" />
    <glyph glyph-name="uni1EA5" unicode="&#x1ea5;" horiz-adv-x="611" 
d="M261 -8q-52 0 -94 19t-66 52t-24 74q0 58 33.5 90.5t100.5 45.5t168 13h80v-54h-76q-62 0 -106.5 -4t-73 -14t-42 -27.5t-13.5 -45.5q0 -44 35.5 -67t87.5 -23q47 0 86.5 21.5t64 56.5t24.5 77v116q0 61 -36.5 90.5t-106.5 29.5q-46 0 -89.5 -12t-90.5 -41l-25 55
q30 19 65 32t72 20t73 7q62 0 108.5 -19.5t72.5 -60.5t26 -105v-318h-63v110h-3q-14 -30 -40 -57.5t-63 -44t-85 -16.5zM159 567l115 166h70l115 -166h-55l-95 115l-96 -115h-54zM403 676l82 150h75l-107 -150h-50z" />
    <glyph glyph-name="uni1EAD" unicode="&#x1ead;" horiz-adv-x="611" 
d="M261 -8q-52 0 -94 19t-66 52t-24 74q0 58 33.5 90.5t100.5 45.5t168 13h80v-54h-76q-62 0 -106.5 -4t-73 -14t-42 -27.5t-13.5 -45.5q0 -44 35.5 -67t87.5 -23q47 0 86.5 21.5t64 56.5t24.5 77v116q0 61 -36.5 90.5t-106.5 29.5q-46 0 -89.5 -12t-90.5 -41l-25 55
q30 19 65 32t72 20t73 7q62 0 108.5 -19.5t72.5 -60.5t26 -105v-318h-63v110h-3q-14 -30 -40 -57.5t-63 -44t-85 -16.5zM228 -184v83h84v-83h-84zM162 566l111 187h72l111 -187h-54l-93 136l-92 -136h-55z" />
    <glyph glyph-name="uni1EA7" unicode="&#x1ea7;" horiz-adv-x="611" 
d="M261 -8q-52 0 -94 19t-66 52t-24 74q0 58 33.5 90.5t100.5 45.5t168 13h80v-54h-76q-62 0 -106.5 -4t-73 -14t-42 -27.5t-13.5 -45.5q0 -44 35.5 -67t87.5 -23q47 0 86.5 21.5t64 56.5t24.5 77v116q0 61 -36.5 90.5t-106.5 29.5q-46 0 -89.5 -12t-90.5 -41l-25 55
q30 19 65 32t72 20t73 7q62 0 108.5 -19.5t72.5 -60.5t26 -105v-318h-63v110h-3q-14 -30 -40 -57.5t-63 -44t-85 -16.5zM159 567l115 166h70l115 -166h-55l-95 115l-96 -115h-54zM445 676l-107 150h74l83 -150h-50z" />
    <glyph glyph-name="uni1EA9" unicode="&#x1ea9;" horiz-adv-x="611" 
d="M261 -8q-52 0 -94 19t-66 52t-24 74q0 58 33.5 90.5t100.5 45.5t168 13h80v-54h-76q-62 0 -106.5 -4t-73 -14t-42 -27.5t-13.5 -45.5q0 -44 35.5 -67t87.5 -23q47 0 86.5 21.5t64 56.5t24.5 77v116q0 61 -36.5 90.5t-106.5 29.5q-46 0 -89.5 -12t-90.5 -41l-25 55
q30 19 65 32t72 20t73 7q62 0 108.5 -19.5t72.5 -60.5t26 -105v-318h-63v110h-3q-14 -30 -40 -57.5t-63 -44t-85 -16.5zM159 567l115 166h70l115 -166h-55l-95 115l-96 -115h-54zM410 679q0 22 9.5 34.5t22 21.5t22 16.5t9.5 17.5q0 13 -13.5 17t-34.5 4q-12 0 -27.5 -2.5
t-33.5 -9.5l-12 38q17 9 38 13t50 4q44 0 67.5 -14.5t23.5 -37.5q0 -20 -10.5 -32t-24.5 -21t-24.5 -20t-10.5 -29h-51z" />
    <glyph glyph-name="uni1EAB" unicode="&#x1eab;" horiz-adv-x="611" 
d="M261 -8q-52 0 -94 19t-66 52t-24 74q0 58 33.5 90.5t100.5 45.5t168 13h80v-54h-76q-62 0 -106.5 -4t-73 -14t-42 -27.5t-13.5 -45.5q0 -44 35.5 -67t87.5 -23q47 0 86.5 21.5t64 56.5t24.5 77v116q0 61 -36.5 90.5t-106.5 29.5q-46 0 -89.5 -12t-90.5 -41l-25 55
q30 19 65 32t72 20t73 7q62 0 108.5 -19.5t72.5 -60.5t26 -105v-318h-63v110h-3q-14 -30 -40 -57.5t-63 -44t-85 -16.5zM159 567l115 137h70l115 -137h-55l-95 91l-96 -91h-54zM196 729l-46 3q3 34 14 57t31 35t48 12q23 0 41 -9t36 -21q15 -10 28 -17t25 -7q22 0 33.5 12.5
t15.5 43.5l47 -4q-4 -49 -28 -76t-66 -27q-22 0 -40 9.5t-36 21.5q-14 9 -27 16t-27 7q-20 0 -32 -12t-17 -44z" />
    <glyph glyph-name="uni0201" unicode="&#x201;" horiz-adv-x="611" 
d="M261 -8q-52 0 -94 19t-66 52t-24 74q0 58 33.5 90.5t100.5 45.5t168 13h80v-54h-76q-62 0 -106.5 -4t-73 -14t-42 -27.5t-13.5 -45.5q0 -44 35.5 -67t87.5 -23q47 0 86.5 21.5t64 56.5t24.5 77v116q0 61 -36.5 90.5t-106.5 29.5q-46 0 -89.5 -12t-90.5 -41l-25 55
q30 19 65 32t72 20t73 7q62 0 108.5 -19.5t72.5 -60.5t26 -105v-318h-63v110h-3q-14 -30 -40 -57.5t-63 -44t-85 -16.5zM350 559l-82 194h70l55 -194h-43zM226 559l-82 194h70l54 -194h-42z" />
    <glyph glyph-name="adieresis" unicode="&#xe4;" horiz-adv-x="611" 
d="M261 -8q-52 0 -94 19t-66 52t-24 74q0 58 33.5 90.5t100.5 45.5t168 13h80v-54h-76q-62 0 -106.5 -4t-73 -14t-42 -27.5t-13.5 -45.5q0 -44 35.5 -67t87.5 -23q47 0 86.5 21.5t64 56.5t24.5 77v116q0 61 -36.5 90.5t-106.5 29.5q-46 0 -89.5 -12t-90.5 -41l-25 55
q30 19 65 32t72 20t73 7q62 0 108.5 -19.5t72.5 -60.5t26 -105v-318h-63v110h-3q-14 -30 -40 -57.5t-63 -44t-85 -16.5zM363 621v82h82v-82h-82zM173 621v82h82v-82h-82z" />
    <glyph glyph-name="uni0227" unicode="&#x227;" horiz-adv-x="611" 
d="M261 -8q-52 0 -94 19t-66 52t-24 74q0 58 33.5 90.5t100.5 45.5t168 13h80v-54h-76q-62 0 -106.5 -4t-73 -14t-42 -27.5t-13.5 -45.5q0 -44 35.5 -67t87.5 -23q47 0 86.5 21.5t64 56.5t24.5 77v116q0 61 -36.5 90.5t-106.5 29.5q-46 0 -89.5 -12t-90.5 -41l-25 55
q30 19 65 32t72 20t73 7q62 0 108.5 -19.5t72.5 -60.5t26 -105v-318h-63v110h-3q-14 -30 -40 -57.5t-63 -44t-85 -16.5zM267 622v83h84v-83h-84z" />
    <glyph glyph-name="uni1EA1" unicode="&#x1ea1;" horiz-adv-x="611" 
d="M261 -8q-52 0 -94 19t-66 52t-24 74q0 58 33.5 90.5t100.5 45.5t168 13h80v-54h-76q-62 0 -106.5 -4t-73 -14t-42 -27.5t-13.5 -45.5q0 -44 35.5 -67t87.5 -23q47 0 86.5 21.5t64 56.5t24.5 77v116q0 61 -36.5 90.5t-106.5 29.5q-46 0 -89.5 -12t-90.5 -41l-25 55
q30 19 65 32t72 20t73 7q62 0 108.5 -19.5t72.5 -60.5t26 -105v-318h-63v110h-3q-14 -30 -40 -57.5t-63 -44t-85 -16.5zM228 -184v83h84v-83h-84z" />
    <glyph glyph-name="agrave" unicode="&#xe0;" horiz-adv-x="611" 
d="M261 -8q-52 0 -94 19t-66 52t-24 74q0 58 33.5 90.5t100.5 45.5t168 13h80v-54h-76q-62 0 -106.5 -4t-73 -14t-42 -27.5t-13.5 -45.5q0 -44 35.5 -67t87.5 -23q47 0 86.5 21.5t64 56.5t24.5 77v116q0 61 -36.5 90.5t-106.5 29.5q-46 0 -89.5 -12t-90.5 -41l-25 55
q30 19 65 32t72 20t73 7q62 0 108.5 -19.5t72.5 -60.5t26 -105v-318h-63v110h-3q-14 -30 -40 -57.5t-63 -44t-85 -16.5zM282 560l-129 193h82l103 -193h-56z" />
    <glyph glyph-name="uni1EA3" unicode="&#x1ea3;" horiz-adv-x="611" 
d="M261 -8q-52 0 -94 19t-66 52t-24 74q0 58 33.5 90.5t100.5 45.5t168 13h80v-54h-76q-62 0 -106.5 -4t-73 -14t-42 -27.5t-13.5 -45.5q0 -44 35.5 -67t87.5 -23q47 0 86.5 21.5t64 56.5t24.5 77v116q0 61 -36.5 90.5t-106.5 29.5q-46 0 -89.5 -12t-90.5 -41l-25 55
q30 19 65 32t72 20t73 7q62 0 108.5 -19.5t72.5 -60.5t26 -105v-318h-63v110h-3q-14 -30 -40 -57.5t-63 -44t-85 -16.5zM282 560v20q0 24 9.5 39t22.5 25.5t23 21.5t10 26q0 14 -12 21.5t-37 7.5q-15 0 -30.5 -4t-33.5 -12l-13 43q18 11 41 16t51 5q46 0 72 -17.5t26 -50.5
q0 -25 -11 -40.5t-26 -26t-26.5 -24t-11.5 -35.5v-15h-54z" />
    <glyph glyph-name="uni0203" unicode="&#x203;" horiz-adv-x="611" 
d="M261 -8q-52 0 -94 19t-66 52t-24 74q0 58 33.5 90.5t100.5 45.5t168 13h80v-54h-76q-62 0 -106.5 -4t-73 -14t-42 -27.5t-13.5 -45.5q0 -44 35.5 -67t87.5 -23q47 0 86.5 21.5t64 56.5t24.5 77v116q0 61 -36.5 90.5t-106.5 29.5q-46 0 -89.5 -12t-90.5 -41l-25 55
q30 19 65 32t72 20t73 7q62 0 108.5 -19.5t72.5 -60.5t26 -105v-318h-63v110h-3q-14 -30 -40 -57.5t-63 -44t-85 -16.5zM207 556l-51 6q3 59 21.5 102t52.5 66.5t79 23.5q46 0 79.5 -23.5t52.5 -66.5t21 -102l-51 -6q-4 69 -29 105.5t-73 36.5q-47 0 -72.5 -36.5
t-29.5 -105.5z" />
    <glyph glyph-name="amacron" unicode="&#x101;" horiz-adv-x="611" 
d="M261 -8q-52 0 -94 19t-66 52t-24 74q0 58 33.5 90.5t100.5 45.5t168 13h80v-54h-76q-62 0 -106.5 -4t-73 -14t-42 -27.5t-13.5 -45.5q0 -44 35.5 -67t87.5 -23q47 0 86.5 21.5t64 56.5t24.5 77v116q0 61 -36.5 90.5t-106.5 29.5q-46 0 -89.5 -12t-90.5 -41l-25 55
q30 19 65 32t72 20t73 7q62 0 108.5 -19.5t72.5 -60.5t26 -105v-318h-63v110h-3q-14 -30 -40 -57.5t-63 -44t-85 -16.5zM152 636v56h314v-56h-314z" />
    <glyph glyph-name="aogonek" unicode="&#x105;" horiz-adv-x="611" 
d="M261 -8q-52 0 -94 19t-66 52t-24 74q0 58 33.5 90.5t100.5 45.5t168 13h80v-54h-76q-62 0 -106.5 -4t-73 -14t-42 -27.5t-13.5 -45.5q0 -44 35.5 -67t87.5 -23q47 0 86.5 21.5t64 56.5t24.5 77v116q0 61 -36.5 90.5t-106.5 29.5q-46 0 -89.5 -12t-90.5 -41l-25 55
q30 19 65 32t72 20t73 7q62 0 108.5 -19.5t72.5 -60.5t26 -105v-318h-63v110h-3q-14 -30 -40 -57.5t-63 -44t-85 -16.5zM481 -194q-46 0 -76 26t-30 69q0 39 27 75t71 59l28 -35q-15 -7 -31 -19.5t-26.5 -30.5t-10.5 -39q0 -29 16.5 -41t39.5 -12q12 0 25.5 3t26.5 9l17 -47
q-13 -7 -32.5 -12t-44.5 -5z" />
    <glyph glyph-name="aring" unicode="&#xe5;" horiz-adv-x="611" 
d="M261 -8q-52 0 -94 19t-66 52t-24 74q0 58 33.5 90.5t100.5 45.5t168 13h80v-54h-76q-62 0 -106.5 -4t-73 -14t-42 -27.5t-13.5 -45.5q0 -44 35.5 -67t87.5 -23q47 0 86.5 21.5t64 56.5t24.5 77v116q0 61 -36.5 90.5t-106.5 29.5q-46 0 -89.5 -12t-90.5 -41l-25 55
q30 19 65 32t72 20t73 7q62 0 108.5 -19.5t72.5 -60.5t26 -105v-318h-63v110h-3q-14 -30 -40 -57.5t-63 -44t-85 -16.5zM309 555q-35 0 -62 15.5t-43 42t-16 58.5q0 33 16 59t43 41.5t62 15.5t62 -15.5t43 -41.5t16 -59q0 -32 -16 -58.5t-43 -42t-62 -15.5zM309 598
q32 0 53 21t21 52q0 32 -21 53t-53 21t-53 -21t-21 -53q0 -31 21 -52t53 -21z" />
    <glyph glyph-name="aringacute" unicode="&#x1fb;" horiz-adv-x="611" 
d="M261 -8q-52 0 -94 19t-66 52t-24 74q0 58 33.5 90.5t100.5 45.5t168 13h80v-54h-76q-62 0 -106.5 -4t-73 -14t-42 -27.5t-13.5 -45.5q0 -44 35.5 -67t87.5 -23q47 0 86.5 21.5t64 56.5t24.5 77v116q0 61 -36.5 90.5t-106.5 29.5q-46 0 -89.5 -12t-90.5 -41l-25 55
q30 19 65 32t72 20t73 7q62 0 108.5 -19.5t72.5 -60.5t26 -105v-318h-63v110h-3q-14 -30 -40 -57.5t-63 -44t-85 -16.5zM309 555q-35 0 -62 15.5t-43 41.5t-16 59q0 32 16 58t43 41.5t62 15.5q22 0 40 -6t33 -17l66 62h79l-112 -97q7 -13 11 -27t4 -30q0 -33 -16 -59
t-43 -41.5t-62 -15.5zM309 598q32 0 53 20.5t21 52.5t-21 52.5t-53 20.5t-53 -20.5t-21 -52.5t21 -52.5t53 -20.5z" />
    <glyph glyph-name="atilde" unicode="&#xe3;" horiz-adv-x="611" 
d="M261 -8q-52 0 -94 19t-66 52t-24 74q0 58 33.5 90.5t100.5 45.5t168 13h80v-54h-76q-62 0 -106.5 -4t-73 -14t-42 -27.5t-13.5 -45.5q0 -44 35.5 -67t87.5 -23q47 0 86.5 21.5t64 56.5t24.5 77v116q0 61 -36.5 90.5t-106.5 29.5q-46 0 -89.5 -12t-90.5 -41l-25 55
q30 19 65 32t72 20t73 7q62 0 108.5 -19.5t72.5 -60.5t26 -105v-318h-63v110h-3q-14 -30 -40 -57.5t-63 -44t-85 -16.5zM178 599l-46 3q5 62 32.5 96.5t70.5 34.5q26 0 46.5 -13.5t39.5 -30.5q16 -14 30 -24t29 -10q26 0 40 20.5t20 59.5l46 -3q-5 -62 -32.5 -96.5
t-69.5 -34.5q-27 0 -47.5 14t-39.5 30q-16 15 -30 24t-29 9q-26 0 -40 -20t-20 -59z" />
    <glyph glyph-name="ae" unicode="&#xe6;" horiz-adv-x="974" 
d="M257 -8q-51 0 -92 19t-64.5 52t-23.5 74q0 58 34 90.5t101.5 45.5t170.5 13h86v-54h-82q-86 0 -138.5 -7.5t-76.5 -27t-24 -56.5q0 -43 34.5 -66.5t84.5 -23.5q51 0 91.5 21.5t64 57t23.5 77.5v115q0 61 -36.5 90.5t-103.5 29.5q-48 0 -92.5 -12t-90.5 -41l-25 55
q30 19 65 32t72.5 20t73.5 7q73 0 120.5 -30.5t65.5 -78.5v0q28 54 77.5 81.5t115.5 27.5q72 0 121 -31.5t74.5 -88t25.5 -133.5v-21h-414v54h373l-22 -21q0 53 -18 94.5t-53 65t-87 23.5q-80 0 -127.5 -51t-47.5 -138v-10q0 -88 49.5 -141t142.5 -53q50 0 88.5 12.5
t78.5 41.5l27 -51q-35 -32 -87 -47.5t-107 -15.5q-61 0 -106 16.5t-75 48t-44 74.5h-1q-16 -38 -46.5 -70t-74 -50.5t-101.5 -18.5z" />
    <glyph glyph-name="aeacute" unicode="&#x1fd;" horiz-adv-x="974" 
d="M257 -8q-51 0 -92 19t-64.5 52t-23.5 74q0 58 34 90.5t101.5 45.5t170.5 13h86v-54h-82q-86 0 -138.5 -7.5t-76.5 -27t-24 -56.5q0 -43 34.5 -66.5t84.5 -23.5q51 0 91.5 21.5t64 57t23.5 77.5v115q0 61 -36.5 90.5t-103.5 29.5q-48 0 -92.5 -12t-90.5 -41l-25 55
q30 19 65 32t72.5 20t73.5 7q73 0 120.5 -30.5t65.5 -78.5v0q28 54 77.5 81.5t115.5 27.5q72 0 121 -31.5t74.5 -88t25.5 -133.5v-21h-414v54h373l-22 -21q0 53 -18 94.5t-53 65t-87 23.5q-80 0 -127.5 -51t-47.5 -138v-10q0 -88 49.5 -141t142.5 -53q50 0 88.5 12.5
t78.5 41.5l27 -51q-35 -32 -87 -47.5t-107 -15.5q-61 0 -106 16.5t-75 48t-44 74.5h-1q-16 -38 -46.5 -70t-74 -50.5t-101.5 -18.5zM463 559l104 194h81l-129 -194h-56z" />
    <glyph glyph-name="b" unicode="b" horiz-adv-x="644" 
d="M348 -8q-64 0 -112 31t-71 87h-3v-110h-64v705h70v-317h2q22 54 68.5 84.5t110.5 30.5q69 0 120.5 -32.5t80 -89.5t28.5 -134q0 -76 -28.5 -133.5t-80.5 -89.5t-121 -32zM337 52q79 0 124.5 53t45.5 142t-45.5 142t-125.5 53q-78 0 -123.5 -53t-45.5 -142t45.5 -142
t124.5 -53z" />
    <glyph glyph-name="uni0253" unicode="&#x253;" horiz-adv-x="644" 
d="M347 -8q-64 0 -112 31t-71 87h-2v-110h-64v546q0 52 17 89t51.5 57.5t86.5 20.5q20 0 40.5 -2.5t33.5 -7.5l-8 -58q-11 5 -28 7t-33 2q-48 0 -69 -27.5t-21 -79.5l-1 -159h2q23 54 69 84.5t110 30.5q69 0 120.5 -32.5t80.5 -89.5t29 -134q0 -76 -29 -133.5t-80.5 -89.5
t-121.5 -32zM337 52q79 0 124.5 53t45.5 142t-46 142t-125 53t-124.5 -53t-45.5 -142t45.5 -142t125.5 -53z" />
    <glyph glyph-name="c" unicode="c" horiz-adv-x="515" 
d="M315 -8q-76 0 -131.5 31t-86 88.5t-30.5 135.5q0 79 30.5 136.5t86.5 88.5t131 31q51 0 96.5 -18t75.5 -49l-28 -53q-30 28 -67 42.5t-72 14.5q-84 0 -133 -51t-49 -143q0 -91 49 -141.5t132 -50.5q36 0 72.5 14.5t64.5 39.5l28 -52q-29 -30 -73.5 -47t-95.5 -17z" />
    <glyph glyph-name="cacute" unicode="&#x107;" horiz-adv-x="515" 
d="M315 -8q-76 0 -131.5 31t-86 88.5t-30.5 135.5q0 79 30.5 136.5t86.5 88.5t131 31q51 0 96.5 -18t75.5 -49l-28 -53q-30 28 -67 42.5t-72 14.5q-84 0 -133 -51t-49 -143q0 -91 49 -141.5t132 -50.5q36 0 72.5 14.5t64.5 39.5l28 -52q-29 -30 -73.5 -47t-95.5 -17z
M281 559l104 194h81l-129 -194h-56z" />
    <glyph glyph-name="ccaron" unicode="&#x10d;" horiz-adv-x="515" 
d="M315 -8q-76 0 -131.5 31t-86 88.5t-30.5 135.5q0 79 30.5 136.5t86.5 88.5t131 31q51 0 96.5 -18t75.5 -49l-28 -53q-30 28 -67 42.5t-72 14.5q-84 0 -133 -51t-49 -143q0 -91 49 -141.5t132 -50.5q36 0 72.5 14.5t64.5 39.5l28 -52q-29 -30 -73.5 -47t-95.5 -17z
M274 559l-111 194h55l92 -143l93 143h54l-111 -194h-72z" />
    <glyph glyph-name="ccedilla" unicode="&#xe7;" horiz-adv-x="515" 
d="M315 -8q-76 0 -131.5 31t-86 88.5t-30.5 135.5q0 79 30.5 136.5t86.5 88.5t131 31q51 0 96.5 -18t75.5 -49l-28 -53q-30 28 -67 42.5t-72 14.5q-84 0 -133 -51t-49 -143q0 -91 49 -141.5t132 -50.5q36 0 72.5 14.5t64.5 39.5l28 -52q-29 -30 -73.5 -47t-95.5 -17z
M314 -193q-24 0 -48.5 5t-39.5 14l12 43q19 -9 35.5 -13t41.5 -4q27 0 43.5 9t16.5 28q0 15 -10.5 22.5t-29.5 7.5q-9 0 -21.5 -2t-28.5 -7l-17 15l15 95h48l-13 -77l-22 8q11 3 25 5t26 2q23 0 41.5 -7.5t30.5 -23t12 -38.5q0 -25 -15.5 -43.5t-41.5 -28.5t-60 -10z" />
    <glyph glyph-name="uni1E09" unicode="&#x1e09;" horiz-adv-x="515" 
d="M315 -8q-76 0 -131.5 31t-86 88.5t-30.5 135.5q0 79 30.5 136.5t86.5 88.5t131 31q51 0 96.5 -18t75.5 -49l-28 -53q-30 28 -67 42.5t-72 14.5q-84 0 -133 -51t-49 -143q0 -91 49 -141.5t132 -50.5q36 0 72.5 14.5t64.5 39.5l28 -52q-29 -30 -73.5 -47t-95.5 -17z
M314 -193q-24 0 -48.5 5t-39.5 14l12 43q19 -9 35.5 -13t41.5 -4q27 0 43.5 9t16.5 28q0 15 -10.5 22.5t-29.5 7.5q-9 0 -21.5 -2t-28.5 -7l-17 15l15 95h48l-13 -77l-22 8q11 3 25 5t26 2q23 0 41.5 -7.5t30.5 -23t12 -38.5q0 -25 -15.5 -43.5t-41.5 -28.5t-60 -10z
M281 559l104 194h81l-129 -194h-56z" />
    <glyph glyph-name="ccircumflex" unicode="&#x109;" horiz-adv-x="515" 
d="M315 -8q-76 0 -131.5 31t-86 88.5t-30.5 135.5q0 79 30.5 136.5t86.5 88.5t131 31q51 0 96.5 -18t75.5 -49l-28 -53q-30 28 -67 42.5t-72 14.5q-84 0 -133 -51t-49 -143q0 -91 49 -141.5t132 -50.5q36 0 72.5 14.5t64.5 39.5l28 -52q-29 -30 -73.5 -47t-95.5 -17z
M163 566l111 187h72l111 -187h-54l-93 136l-92 -136h-55z" />
    <glyph glyph-name="cdotaccent" unicode="&#x10b;" horiz-adv-x="515" 
d="M315 -8q-76 0 -131.5 31t-86 88.5t-30.5 135.5q0 79 30.5 136.5t86.5 88.5t131 31q51 0 96.5 -18t75.5 -49l-28 -53q-30 28 -67 42.5t-72 14.5q-84 0 -133 -51t-49 -143q0 -91 49 -141.5t132 -50.5q36 0 72.5 14.5t64.5 39.5l28 -52q-29 -30 -73.5 -47t-95.5 -17z
M268 622v83h84v-83h-84z" />
    <glyph glyph-name="d" unicode="d" horiz-adv-x="644" 
d="M296 -8q-69 0 -120.5 32t-80 89.5t-28.5 133.5q0 77 28.5 134t80 89.5t119.5 32.5q65 0 111.5 -30.5t67.5 -84.5h3v317h70v-705h-65v110h-3q-23 -56 -70.5 -87t-112.5 -31zM307 52q80 0 125 53t45 142t-45 142t-124 53t-125 -53t-46 -142t45.5 -142t124.5 -53z" />
    <glyph glyph-name="eth" unicode="&#xf0;" horiz-adv-x="604" 
d="M305 -8q-71 0 -124.5 29.5t-83.5 82t-30 124.5q0 70 29.5 123t82.5 82.5t123 29.5q61 0 106.5 -30t66.5 -81v0q-5 76 -47 140t-115 109h19l-163 -68l-21 47l128 54v-13q-22 12 -48 21.5t-54 16.5l17 52q44 -9 82.5 -24.5t71.5 -34.5l-21 1l139 58l20 -47l-107 -45l2 11
q55 -39 93 -92t57.5 -116t19.5 -136q0 -93 -28.5 -158.5t-83 -100.5t-131.5 -35zM305 53q79 0 124 46.5t45 128.5q0 83 -44.5 129t-123.5 46q-77 0 -123 -48t-46 -127q0 -80 46 -127.5t122 -47.5z" />
    <glyph glyph-name="dcaron" unicode="&#x10f;" horiz-adv-x="644" 
d="M296 -8q-69 0 -120.5 32t-80 89.5t-28.5 133.5q0 77 28.5 134t80 89.5t119.5 32.5q65 0 111.5 -30.5t67.5 -84.5h3v317h70v-705h-65v110h-3q-23 -56 -70.5 -87t-112.5 -31zM307 52q80 0 125 53t45 142t-45 142t-124 53t-125 -53t-46 -142t45.5 -142t124.5 -53zM596 515
v190h65l-23 -190h-42z" />
    <glyph glyph-name="dcroat" unicode="&#x111;" horiz-adv-x="655" 
d="M296 -8q-69 0 -120.5 31t-80 87.5t-28.5 131.5t28.5 131.5t80 88t120.5 31.5q64 0 110.5 -30t67.5 -83h3v177h-194v53h194v95h70v-94h90v-54h-90v-557h-65v110h-3q-22 -55 -70 -86.5t-113 -31.5zM307 51q80 0 125 51t45 140q0 86 -45 139t-124 53q-53 0 -91 -24.5
t-59 -67t-21 -100.5q0 -89 45.5 -140t124.5 -51z" />
    <glyph glyph-name="uni1E0D" unicode="&#x1e0d;" horiz-adv-x="644" 
d="M296 -8q-69 0 -120.5 32t-80 89.5t-28.5 133.5q0 77 28.5 134t80 89.5t119.5 32.5q65 0 111.5 -30.5t67.5 -84.5h3v317h70v-705h-65v110h-3q-23 -56 -70.5 -87t-112.5 -31zM307 52q80 0 125 53t45 142t-45 142t-124 53t-125 -53t-46 -142t45.5 -142t124.5 -53zM264 -184
v83h84v-83h-84z" />
    <glyph glyph-name="uni0257" unicode="&#x257;" horiz-adv-x="644" 
d="M296 -8q-69 0 -120.5 32t-80 89.5t-28.5 133.5q0 77 28.5 134t79.5 89.5t120 32.5q64 0 111 -30.5t68 -84.5h3v158q0 52 17 89t51.5 57.5t86.5 20.5q20 0 40.5 -2.5t32.5 -7.5l-7 -58q-11 5 -28 7t-33 2q-48 0 -69 -27.5t-21 -79.5v-547h-65v110h-3q-23 -56 -70.5 -87
t-112.5 -31zM307 52q79 0 124.5 53t45.5 142t-45.5 142t-123.5 53q-79 0 -125 -53t-46 -142t45.5 -142t124.5 -53z" />
    <glyph glyph-name="uni1E0F" unicode="&#x1e0f;" horiz-adv-x="644" 
d="M296 -8q-69 0 -120.5 32t-80 89.5t-28.5 133.5q0 77 28.5 134t80 89.5t119.5 32.5q65 0 111.5 -30.5t67.5 -84.5h3v317h70v-705h-65v110h-3q-23 -56 -70.5 -87t-112.5 -31zM307 52q80 0 125 53t45 142t-45 142t-124 53t-125 -53t-46 -142t45.5 -142t124.5 -53zM149 -158
v57h314v-57h-314z" />
    <glyph glyph-name="uni01C6" unicode="&#x1c6;" horiz-adv-x="1172" 
d="M296 -8q-69 0 -120.5 32t-80 89.5t-28.5 133.5q0 77 28.5 134t80 89.5t119.5 32.5q65 0 111.5 -30.5t67.5 -84.5h3v317h70v-705h-65v110h-3q-23 -56 -70.5 -87t-112.5 -31zM307 52q80 0 125 53t45 142t-45 142t-124 53t-125 -53t-46 -142t45.5 -142t124.5 -53zM706 0v43
l329 415l7 -25h-325v61h390v-45l-330 -417l-7 29h349v-61h-413zM879 559l-111 194h55l92 -143l93 143h54l-111 -194h-72z" />
    <glyph glyph-name="e" unicode="e" horiz-adv-x="598" 
d="M328 -8q-79 0 -138 30t-91 87.5t-32 138.5q0 74 28.5 131.5t83 90.5t129.5 33t124.5 -32t74.5 -88.5t25 -132.5v-22h-416v55h375l-22 -22q0 87 -42 135.5t-119 48.5q-50 0 -89 -23t-61 -64.5t-22 -100.5v-9q0 -63 23.5 -106.5t67 -66.5t101.5 -23q41 0 85 11.5t82 43.5
l28 -52q-38 -33 -91 -48t-104 -15z" />
    <glyph glyph-name="eacute" unicode="&#xe9;" horiz-adv-x="598" 
d="M328 -8q-79 0 -138 30t-91 87.5t-32 138.5q0 74 28.5 131.5t83 90.5t129.5 33t124.5 -32t74.5 -88.5t25 -132.5v-22h-416v55h375l-22 -22q0 87 -42 135.5t-119 48.5q-50 0 -89 -23t-61 -64.5t-22 -100.5v-9q0 -63 23.5 -106.5t67 -66.5t101.5 -23q41 0 85 11.5t82 43.5
l28 -52q-38 -33 -91 -48t-104 -15zM280 559l104 194h81l-129 -194h-56z" />
    <glyph glyph-name="ebreve" unicode="&#x115;" horiz-adv-x="598" 
d="M328 -8q-79 0 -138 30t-91 87.5t-32 138.5q0 74 28.5 131.5t83 90.5t129.5 33t124.5 -32t74.5 -88.5t25 -132.5v-22h-416v55h375l-22 -22q0 87 -42 135.5t-119 48.5q-50 0 -89 -23t-61 -64.5t-22 -100.5v-9q0 -63 23.5 -106.5t67 -66.5t101.5 -23q41 0 85 11.5t82 43.5
l28 -52q-38 -33 -91 -48t-104 -15zM309 556q-46 0 -79.5 23.5t-52 67t-21.5 101.5l51 6q4 -69 29 -105.5t73 -36.5q47 0 72.5 36.5t29.5 105.5l51 -6q-2 -58 -21.5 -101.5t-52.5 -67t-79 -23.5z" />
    <glyph glyph-name="ecaron" unicode="&#x11b;" horiz-adv-x="598" 
d="M328 -8q-79 0 -138 30t-91 87.5t-32 138.5q0 74 28.5 131.5t83 90.5t129.5 33t124.5 -32t74.5 -88.5t25 -132.5v-22h-416v55h375l-22 -22q0 87 -42 135.5t-119 48.5q-50 0 -89 -23t-61 -64.5t-22 -100.5v-9q0 -63 23.5 -106.5t67 -66.5t101.5 -23q41 0 85 11.5t82 43.5
l28 -52q-38 -33 -91 -48t-104 -15zM273 559l-111 194h55l92 -143l93 143h54l-111 -194h-72z" />
    <glyph glyph-name="uni1E1D" unicode="&#x1e1d;" horiz-adv-x="598" 
d="M328 -8q-79 0 -138 30t-91 87.5t-32 138.5q0 74 28.5 131.5t83 90.5t129.5 33t124.5 -32t74.5 -88.5t25 -132.5v-22h-416v55h375l-22 -22q0 87 -42 135.5t-119 48.5q-50 0 -89 -23t-61 -64.5t-22 -100.5v-9q0 -63 23.5 -106.5t67 -66.5t101.5 -23q41 0 85 11.5t82 43.5
l28 -52q-38 -33 -91 -48t-104 -15zM312 -193q-24 0 -48.5 5t-39.5 14l12 43q19 -9 35.5 -13t41.5 -4q27 0 43.5 9t16.5 28q0 15 -10.5 22.5t-29.5 7.5q-9 0 -21.5 -2t-28.5 -7l-17 15l15 95h48l-13 -77l-22 8q11 3 25 5t26 2q23 0 41.5 -7.5t30.5 -23t12 -38.5
q0 -25 -15.5 -43.5t-41.5 -28.5t-60 -10zM309 556q-46 0 -79.5 23.5t-52 67t-21.5 101.5l51 6q4 -69 29 -105.5t73 -36.5q47 0 72.5 36.5t29.5 105.5l51 -6q-2 -58 -21.5 -101.5t-52.5 -67t-79 -23.5z" />
    <glyph glyph-name="ecircumflex" unicode="&#xea;" horiz-adv-x="598" 
d="M328 -8q-79 0 -138 30t-91 87.5t-32 138.5q0 74 28.5 131.5t83 90.5t129.5 33t124.5 -32t74.5 -88.5t25 -132.5v-22h-416v55h375l-22 -22q0 87 -42 135.5t-119 48.5q-50 0 -89 -23t-61 -64.5t-22 -100.5v-9q0 -63 23.5 -106.5t67 -66.5t101.5 -23q41 0 85 11.5t82 43.5
l28 -52q-38 -33 -91 -48t-104 -15zM162 566l111 187h72l111 -187h-54l-93 136l-92 -136h-55z" />
    <glyph glyph-name="uni1EBF" unicode="&#x1ebf;" horiz-adv-x="598" 
d="M328 -8q-79 0 -138 30t-91 87.5t-32 138.5q0 74 28.5 131.5t83 90.5t129.5 33t124.5 -32t74.5 -88.5t25 -132.5v-22h-416v55h375l-22 -22q0 87 -42 135.5t-119 48.5q-50 0 -89 -23t-61 -64.5t-22 -100.5v-9q0 -63 23.5 -106.5t67 -66.5t101.5 -23q41 0 85 11.5t82 43.5
l28 -52q-38 -33 -91 -48t-104 -15zM159 567l115 166h70l115 -166h-55l-95 115l-96 -115h-54zM403 676l82 150h75l-107 -150h-50z" />
    <glyph glyph-name="uni1EC7" unicode="&#x1ec7;" horiz-adv-x="598" 
d="M328 -8q-79 0 -138 30t-91 87.5t-32 138.5q0 74 28.5 131.5t83 90.5t129.5 33t124.5 -32t74.5 -88.5t25 -132.5v-22h-416v55h375l-22 -22q0 87 -42 135.5t-119 48.5q-50 0 -89 -23t-61 -64.5t-22 -100.5v-9q0 -63 23.5 -106.5t67 -66.5t101.5 -23q41 0 85 11.5t82 43.5
l28 -52q-38 -33 -91 -48t-104 -15zM266 -184v83h84v-83h-84zM162 566l111 187h72l111 -187h-54l-93 136l-92 -136h-55z" />
    <glyph glyph-name="uni1EC1" unicode="&#x1ec1;" horiz-adv-x="598" 
d="M328 -8q-79 0 -138 30t-91 87.5t-32 138.5q0 74 28.5 131.5t83 90.5t129.5 33t124.5 -32t74.5 -88.5t25 -132.5v-22h-416v55h375l-22 -22q0 87 -42 135.5t-119 48.5q-50 0 -89 -23t-61 -64.5t-22 -100.5v-9q0 -63 23.5 -106.5t67 -66.5t101.5 -23q41 0 85 11.5t82 43.5
l28 -52q-38 -33 -91 -48t-104 -15zM159 567l115 166h70l115 -166h-55l-95 115l-96 -115h-54zM445 676l-107 150h74l83 -150h-50z" />
    <glyph glyph-name="uni1EC3" unicode="&#x1ec3;" horiz-adv-x="598" 
d="M328 -8q-79 0 -138 30t-91 87.5t-32 138.5q0 74 28.5 131.5t83 90.5t129.5 33t124.5 -32t74.5 -88.5t25 -132.5v-22h-416v55h375l-22 -22q0 87 -42 135.5t-119 48.5q-50 0 -89 -23t-61 -64.5t-22 -100.5v-9q0 -63 23.5 -106.5t67 -66.5t101.5 -23q41 0 85 11.5t82 43.5
l28 -52q-38 -33 -91 -48t-104 -15zM159 567l115 166h70l115 -166h-55l-95 115l-96 -115h-54zM410 679q0 22 9.5 34.5t22 21.5t22 16.5t9.5 17.5q0 13 -13.5 17t-34.5 4q-12 0 -27.5 -2.5t-33.5 -9.5l-12 38q17 9 38 13t50 4q44 0 67.5 -14.5t23.5 -37.5q0 -20 -10.5 -32
t-24.5 -21t-24.5 -20t-10.5 -29h-51z" />
    <glyph glyph-name="uni1EC5" unicode="&#x1ec5;" horiz-adv-x="598" 
d="M328 -8q-79 0 -138 30t-91 87.5t-32 138.5q0 74 28.5 131.5t83 90.5t129.5 33t124.5 -32t74.5 -88.5t25 -132.5v-22h-416v55h375l-22 -22q0 87 -42 135.5t-119 48.5q-50 0 -89 -23t-61 -64.5t-22 -100.5v-9q0 -63 23.5 -106.5t67 -66.5t101.5 -23q41 0 85 11.5t82 43.5
l28 -52q-38 -33 -91 -48t-104 -15zM159 567l115 137h70l115 -137h-55l-95 91l-96 -91h-54zM196 729l-46 3q3 34 14 57t31 35t48 12q23 0 41 -9t36 -21q15 -10 28 -17t25 -7q22 0 33.5 12.5t15.5 43.5l47 -4q-4 -49 -28 -76t-66 -27q-22 0 -40 9.5t-36 21.5q-14 9 -27 16
t-27 7q-20 0 -32 -12t-17 -44z" />
    <glyph glyph-name="uni0205" unicode="&#x205;" horiz-adv-x="598" 
d="M328 -8q-79 0 -138 30t-91 87.5t-32 138.5q0 74 28.5 131.5t83 90.5t129.5 33t124.5 -32t74.5 -88.5t25 -132.5v-22h-416v55h375l-22 -22q0 87 -42 135.5t-119 48.5q-50 0 -89 -23t-61 -64.5t-22 -100.5v-9q0 -63 23.5 -106.5t67 -66.5t101.5 -23q41 0 85 11.5t82 43.5
l28 -52q-38 -33 -91 -48t-104 -15zM350 559l-82 194h70l55 -194h-43zM226 559l-82 194h70l54 -194h-42z" />
    <glyph glyph-name="edieresis" unicode="&#xeb;" horiz-adv-x="598" 
d="M328 -8q-79 0 -138 30t-91 87.5t-32 138.5q0 74 28.5 131.5t83 90.5t129.5 33t124.5 -32t74.5 -88.5t25 -132.5v-22h-416v55h375l-22 -22q0 87 -42 135.5t-119 48.5q-50 0 -89 -23t-61 -64.5t-22 -100.5v-9q0 -63 23.5 -106.5t67 -66.5t101.5 -23q41 0 85 11.5t82 43.5
l28 -52q-38 -33 -91 -48t-104 -15zM363 621v82h82v-82h-82zM173 621v82h82v-82h-82z" />
    <glyph glyph-name="edotaccent" unicode="&#x117;" horiz-adv-x="598" 
d="M328 -8q-79 0 -138 30t-91 87.5t-32 138.5q0 74 28.5 131.5t83 90.5t129.5 33t124.5 -32t74.5 -88.5t25 -132.5v-22h-416v55h375l-22 -22q0 87 -42 135.5t-119 48.5q-50 0 -89 -23t-61 -64.5t-22 -100.5v-9q0 -63 23.5 -106.5t67 -66.5t101.5 -23q41 0 85 11.5t82 43.5
l28 -52q-38 -33 -91 -48t-104 -15zM267 622v83h84v-83h-84z" />
    <glyph glyph-name="uni1EB9" unicode="&#x1eb9;" horiz-adv-x="598" 
d="M328 -8q-79 0 -138 30t-91 87.5t-32 138.5q0 74 28.5 131.5t83 90.5t129.5 33t124.5 -32t74.5 -88.5t25 -132.5v-22h-416v55h375l-22 -22q0 87 -42 135.5t-119 48.5q-50 0 -89 -23t-61 -64.5t-22 -100.5v-9q0 -63 23.5 -106.5t67 -66.5t101.5 -23q41 0 85 11.5t82 43.5
l28 -52q-38 -33 -91 -48t-104 -15zM266 -184v83h84v-83h-84z" />
    <glyph glyph-name="egrave" unicode="&#xe8;" horiz-adv-x="598" 
d="M328 -8q-79 0 -138 30t-91 87.5t-32 138.5q0 74 28.5 131.5t83 90.5t129.5 33t124.5 -32t74.5 -88.5t25 -132.5v-22h-416v55h375l-22 -22q0 87 -42 135.5t-119 48.5q-50 0 -89 -23t-61 -64.5t-22 -100.5v-9q0 -63 23.5 -106.5t67 -66.5t101.5 -23q41 0 85 11.5t82 43.5
l28 -52q-38 -33 -91 -48t-104 -15zM282 560l-129 193h82l103 -193h-56z" />
    <glyph glyph-name="uni1EBB" unicode="&#x1ebb;" horiz-adv-x="598" 
d="M328 -8q-79 0 -138 30t-91 87.5t-32 138.5q0 74 28.5 131.5t83 90.5t129.5 33t124.5 -32t74.5 -88.5t25 -132.5v-22h-416v55h375l-22 -22q0 87 -42 135.5t-119 48.5q-50 0 -89 -23t-61 -64.5t-22 -100.5v-9q0 -63 23.5 -106.5t67 -66.5t101.5 -23q41 0 85 11.5t82 43.5
l28 -52q-38 -33 -91 -48t-104 -15zM282 560v20q0 24 9.5 39t22.5 25.5t23 21.5t10 26q0 14 -12 21.5t-37 7.5q-15 0 -30.5 -4t-33.5 -12l-13 43q18 11 41 16t51 5q46 0 72 -17.5t26 -50.5q0 -25 -11 -40.5t-26 -26t-26.5 -24t-11.5 -35.5v-15h-54z" />
    <glyph glyph-name="uni0207" unicode="&#x207;" horiz-adv-x="598" 
d="M328 -8q-79 0 -138 30t-91 87.5t-32 138.5q0 74 28.5 131.5t83 90.5t129.5 33t124.5 -32t74.5 -88.5t25 -132.5v-22h-416v55h375l-22 -22q0 87 -42 135.5t-119 48.5q-50 0 -89 -23t-61 -64.5t-22 -100.5v-9q0 -63 23.5 -106.5t67 -66.5t101.5 -23q41 0 85 11.5t82 43.5
l28 -52q-38 -33 -91 -48t-104 -15zM207 556l-51 6q3 59 21.5 102t52.5 66.5t79 23.5q46 0 79.5 -23.5t52.5 -66.5t21 -102l-51 -6q-4 69 -29 105.5t-73 36.5q-47 0 -72.5 -36.5t-29.5 -105.5z" />
    <glyph glyph-name="emacron" unicode="&#x113;" horiz-adv-x="598" 
d="M328 -8q-79 0 -138 30t-91 87.5t-32 138.5q0 74 28.5 131.5t83 90.5t129.5 33t124.5 -32t74.5 -88.5t25 -132.5v-22h-416v55h375l-22 -22q0 87 -42 135.5t-119 48.5q-50 0 -89 -23t-61 -64.5t-22 -100.5v-9q0 -63 23.5 -106.5t67 -66.5t101.5 -23q41 0 85 11.5t82 43.5
l28 -52q-38 -33 -91 -48t-104 -15zM152 636v56h314v-56h-314z" />
    <glyph glyph-name="uni1E17" unicode="&#x1e17;" horiz-adv-x="598" 
d="M328 -8q-79 0 -138 30t-91 87.5t-32 138.5q0 74 28.5 131.5t83 90.5t129.5 33t124.5 -32t74.5 -88.5t25 -132.5v-22h-416v55h375l-22 -22q0 87 -42 135.5t-119 48.5q-50 0 -89 -23t-61 -64.5t-22 -100.5v-9q0 -63 23.5 -106.5t67 -66.5t101.5 -23q41 0 85 11.5t82 43.5
l28 -52q-38 -33 -91 -48t-104 -15zM160 585v54h298v-54h-298zM269 677l90 146h81l-118 -146h-53z" />
    <glyph glyph-name="uni1E15" unicode="&#x1e15;" horiz-adv-x="598" 
d="M328 -8q-79 0 -138 30t-91 87.5t-32 138.5q0 74 28.5 131.5t83 90.5t129.5 33t124.5 -32t74.5 -88.5t25 -132.5v-22h-416v55h375l-22 -22q0 87 -42 135.5t-119 48.5q-50 0 -89 -23t-61 -64.5t-22 -100.5v-9q0 -63 23.5 -106.5t67 -66.5t101.5 -23q41 0 85 11.5t82 43.5
l28 -52q-38 -33 -91 -48t-104 -15zM160 585v54h298v-54h-298zM296 677l-118 146h81l90 -146h-53z" />
    <glyph glyph-name="eogonek" unicode="&#x119;" horiz-adv-x="598" 
d="M328 -8q-79 0 -138 30t-91 87.5t-32 138.5q0 74 28.5 131.5t83 90.5t129.5 33t124.5 -32t74.5 -88.5t25 -132.5v-22h-416v55h375l-22 -22q0 87 -42 135.5t-119 48.5q-50 0 -89 -23t-61 -64.5t-22 -100.5v-9q0 -63 23.5 -106.5t67 -66.5t101.5 -23q41 0 85 11.5t82 43.5
l28 -52q-38 -33 -91 -48t-104 -15zM359 -194q-46 0 -76 26t-30 69q0 39 27 75t71 59l28 -35q-15 -7 -31 -19.5t-26.5 -30.5t-10.5 -39q0 -29 16.5 -41t39.5 -12q12 0 25.5 3t26.5 9l17 -47q-13 -7 -32.5 -12t-44.5 -5z" />
    <glyph glyph-name="uni1EBD" unicode="&#x1ebd;" horiz-adv-x="598" 
d="M328 -8q-79 0 -138 30t-91 87.5t-32 138.5q0 74 28.5 131.5t83 90.5t129.5 33t124.5 -32t74.5 -88.5t25 -132.5v-22h-416v55h375l-22 -22q0 87 -42 135.5t-119 48.5q-50 0 -89 -23t-61 -64.5t-22 -100.5v-9q0 -63 23.5 -106.5t67 -66.5t101.5 -23q41 0 85 11.5t82 43.5
l28 -52q-38 -33 -91 -48t-104 -15zM178 599l-46 3q5 62 32.5 96.5t70.5 34.5q26 0 46.5 -13.5t39.5 -30.5q16 -14 30 -24t29 -10q26 0 40 20.5t20 59.5l46 -3q-5 -62 -32.5 -96.5t-69.5 -34.5q-27 0 -47.5 14t-39.5 30q-16 15 -30 24t-29 9q-26 0 -40 -20t-20 -59z" />
    <glyph glyph-name="uni0259" unicode="&#x259;" horiz-adv-x="598" 
d="M291 -8q-74 0 -124.5 31.5t-75.5 88t-25 133.5v21h415v-54h-374l22 22q0 -88 42.5 -136t119.5 -48q49 0 88 22t61 64t22 101v9q0 63 -23.5 107t-66.5 66.5t-102 22.5q-41 0 -84.5 -11t-83.5 -43l-27 51q38 34 91.5 49t103.5 15q80 0 138.5 -30t90.5 -87t32 -139
q0 -74 -28.5 -131.5t-82 -90.5t-129.5 -33z" />
    <glyph glyph-name="uni0292" unicode="&#x292;" horiz-adv-x="557" 
d="M258 -191q-70 0 -127.5 16t-95.5 46l27 56q37 -28 83.5 -42.5t107.5 -14.5q93 0 138.5 37t45.5 113q0 67 -45.5 99.5t-129.5 32.5h-109l-3 45l255 260l2 -23h-354v60h421v-48l-245 -249l-10 14h57q111 0 171.5 -49t60.5 -140q0 -66 -30 -114t-85.5 -73.5t-134.5 -25.5z
" />
    <glyph glyph-name="uni01EF" unicode="&#x1ef;" horiz-adv-x="557" 
d="M258 -191q-70 0 -127.5 16t-95.5 46l27 56q37 -28 83.5 -42.5t107.5 -14.5q93 0 138.5 37t45.5 113q0 67 -45.5 99.5t-129.5 32.5h-109l-3 45l255 260l2 -23h-354v60h421v-48l-245 -249l-10 14h57q111 0 171.5 -49t60.5 -140q0 -66 -30 -114t-85.5 -73.5t-134.5 -25.5z
M227 559l-111 194h55l92 -143l93 143h54l-111 -194h-72z" />
    <glyph glyph-name="f" unicode="f" horiz-adv-x="393" 
d="M127 0v436h-104v58h121l-17 -17v31q0 93 53 142.5t152 55.5l49 2l6 -60l-58 -3q-35 -2 -65 -14t-48.5 -39.5t-18.5 -78.5v-29l-12 10h177v-58h-165v-436h-70z" />
    <glyph glyph-name="g" unicode="g" horiz-adv-x="643" 
d="M307 -188q-58 0 -116.5 18t-98.5 49l25 56q28 -19 59.5 -32.5t65 -21t64.5 -7.5q81 0 127.5 43t46.5 116v94h-5q-18 -51 -65.5 -83t-109.5 -32q-71 0 -123.5 30.5t-81 86t-28.5 129.5q0 73 28.5 128.5t81 86t123.5 30.5q62 0 110 -32.5t67 -87.5h3v111h66v-454
q0 -69 -29.5 -120.5t-83 -79.5t-126.5 -28zM308 73q78 0 124 51t46 134t-46 133.5t-124 50.5q-79 0 -125 -50.5t-46 -133.5t46 -134t125 -51z" />
    <glyph glyph-name="gbreve" unicode="&#x11f;" horiz-adv-x="643" 
d="M307 -188q-58 0 -116.5 18t-98.5 49l25 56q28 -19 59.5 -32.5t65 -21t64.5 -7.5q81 0 127.5 43t46.5 116v94h-5q-18 -51 -65.5 -83t-109.5 -32q-71 0 -123.5 30.5t-81 86t-28.5 129.5q0 73 28.5 128.5t81 86t123.5 30.5q62 0 110 -32.5t67 -87.5h3v111h66v-454
q0 -69 -29.5 -120.5t-83 -79.5t-126.5 -28zM308 73q78 0 124 51t46 134t-46 133.5t-124 50.5q-79 0 -125 -50.5t-46 -133.5t46 -134t125 -51zM308 556q-46 0 -79.5 23.5t-52 67t-21.5 101.5l51 6q4 -69 29 -105.5t73 -36.5q47 0 72.5 36.5t29.5 105.5l51 -6
q-2 -58 -21.5 -101.5t-52.5 -67t-79 -23.5z" />
    <glyph glyph-name="gcaron" unicode="&#x1e7;" horiz-adv-x="643" 
d="M307 -188q-58 0 -116.5 18t-98.5 49l25 56q28 -19 59.5 -32.5t65 -21t64.5 -7.5q81 0 127.5 43t46.5 116v94h-5q-18 -51 -65.5 -83t-109.5 -32q-71 0 -123.5 30.5t-81 86t-28.5 129.5q0 73 28.5 128.5t81 86t123.5 30.5q62 0 110 -32.5t67 -87.5h3v111h66v-454
q0 -69 -29.5 -120.5t-83 -79.5t-126.5 -28zM308 73q78 0 124 51t46 134t-46 133.5t-124 50.5q-79 0 -125 -50.5t-46 -133.5t46 -134t125 -51zM272 559l-111 194h55l92 -143l93 143h54l-111 -194h-72z" />
    <glyph glyph-name="gcircumflex" unicode="&#x11d;" horiz-adv-x="643" 
d="M307 -188q-58 0 -116.5 18t-98.5 49l25 56q28 -19 59.5 -32.5t65 -21t64.5 -7.5q81 0 127.5 43t46.5 116v94h-5q-18 -51 -65.5 -83t-109.5 -32q-71 0 -123.5 30.5t-81 86t-28.5 129.5q0 73 28.5 128.5t81 86t123.5 30.5q62 0 110 -32.5t67 -87.5h3v111h66v-454
q0 -69 -29.5 -120.5t-83 -79.5t-126.5 -28zM308 73q78 0 124 51t46 134t-46 133.5t-124 50.5q-79 0 -125 -50.5t-46 -133.5t46 -134t125 -51zM161 566l111 187h72l111 -187h-54l-93 136l-92 -136h-55z" />
    <glyph glyph-name="uni0123" unicode="&#x123;" horiz-adv-x="643" 
d="M307 -188q-58 0 -116.5 18t-98.5 49l25 56q28 -19 59.5 -32.5t65 -21t64.5 -7.5q81 0 127.5 43t46.5 116v94h-5q-18 -51 -65.5 -83t-109.5 -32q-71 0 -123.5 30.5t-81 86t-28.5 129.5q0 73 28.5 128.5t81 86t123.5 30.5q62 0 110 -32.5t67 -87.5h3v111h66v-454
q0 -69 -29.5 -120.5t-83 -79.5t-126.5 -28zM308 73q78 0 124 51t46 134t-46 133.5t-124 50.5q-79 0 -125 -50.5t-46 -133.5t46 -134t125 -51zM262 578v66q0 40 12.5 74t39.5 62l35 -27q-24 -23 -32.5 -48t-8.5 -52l-13 10h59v-85h-92z" />
    <glyph glyph-name="gdotaccent" unicode="&#x121;" horiz-adv-x="643" 
d="M307 -188q-58 0 -116.5 18t-98.5 49l25 56q28 -19 59.5 -32.5t65 -21t64.5 -7.5q81 0 127.5 43t46.5 116v94h-5q-18 -51 -65.5 -83t-109.5 -32q-71 0 -123.5 30.5t-81 86t-28.5 129.5q0 73 28.5 128.5t81 86t123.5 30.5q62 0 110 -32.5t67 -87.5h3v111h66v-454
q0 -69 -29.5 -120.5t-83 -79.5t-126.5 -28zM308 73q78 0 124 51t46 134t-46 133.5t-124 50.5q-79 0 -125 -50.5t-46 -133.5t46 -134t125 -51zM266 622v83h84v-83h-84z" />
    <glyph glyph-name="uni1E21" unicode="&#x1e21;" horiz-adv-x="643" 
d="M307 -188q-58 0 -116.5 18t-98.5 49l25 56q28 -19 59.5 -32.5t65 -21t64.5 -7.5q81 0 127.5 43t46.5 116v94h-5q-18 -51 -65.5 -83t-109.5 -32q-71 0 -123.5 30.5t-81 86t-28.5 129.5q0 73 28.5 128.5t81 86t123.5 30.5q62 0 110 -32.5t67 -87.5h3v111h66v-454
q0 -69 -29.5 -120.5t-83 -79.5t-126.5 -28zM308 73q78 0 124 51t46 134t-46 133.5t-124 50.5q-79 0 -125 -50.5t-46 -133.5t46 -134t125 -51zM151 636v56h314v-56h-314z" />
    <glyph glyph-name="uni01E5" unicode="&#x1e5;" horiz-adv-x="643" 
d="M306 -188q-58 0 -116 14.5t-99 45.5l24 53q28 -19 60 -31t65.5 -17t65.5 -5q53 0 92 19t60 55l5 -12h-169v48h189l-13 -9q4 13 6.5 27.5t2.5 29.5v116h-5q-18 -51 -65 -81.5t-110 -30.5q-70 0 -122.5 29.5t-81 82.5t-28.5 122t28.5 122t81 83t122.5 30q63 0 111 -32.5
t67 -86.5h3v110h66v-454q0 -19 -2.5 -36.5t-6.5 -33.5l-8 12h97v-48h-110l12 10q-24 -64 -82 -98t-140 -34zM308 92q52 0 90 22t59 60t21 86q0 83 -46 132.5t-124 49.5q-52 0 -90.5 -22t-59.5 -61.5t-21 -91.5q0 -51 21 -90.5t59.5 -62t90.5 -22.5z" />
    <glyph glyph-name="h" unicode="h" horiz-adv-x="628" 
d="M98 0v705h68v-318h2q23 53 70.5 84.5t108.5 31.5q62 0 103 -21.5t61.5 -64.5t20.5 -108v-309h-70v305q0 40 -12 70.5t-39.5 47.5t-73.5 17q-49 0 -87 -22t-60 -58.5t-22 -78.5v-281h-70z" />
    <glyph glyph-name="hbar" unicode="&#x127;" horiz-adv-x="637" 
d="M106 0v557h-90v54h90v94h68v-94h196v-54h-196v-180h3q22 54 69.5 85t108.5 31q93 0 139.5 -48.5t46.5 -144.5v-300h-70v296q0 40 -12 70.5t-39.5 47.5t-73.5 17q-49 0 -87.5 -22.5t-60.5 -58.5t-22 -78v-272h-70z" />
    <glyph glyph-name="uni1E2B" unicode="&#x1e2b;" horiz-adv-x="628" 
d="M98 0v705h68v-318h2q23 53 70.5 84.5t108.5 31.5q62 0 103 -21.5t61.5 -64.5t20.5 -108v-309h-70v305q0 40 -12 70.5t-39.5 47.5t-73.5 17q-49 0 -87 -22t-60 -58.5t-22 -78.5v-281h-70zM321 -215q-66 0 -108 39t-47 111l50 5q4 -49 30.5 -75.5t74.5 -26.5q47 0 74 26.5
t31 75.5l50 -5q-5 -71 -46.5 -110.5t-108.5 -39.5z" />
    <glyph glyph-name="uni021F" unicode="&#x21f;" horiz-adv-x="628" 
d="M98 0v705h68v-318h2q23 53 70.5 84.5t108.5 31.5q62 0 103 -21.5t61.5 -64.5t20.5 -108v-309h-70v305q0 40 -12 70.5t-39.5 47.5t-73.5 17q-49 0 -87 -22t-60 -58.5t-22 -78.5v-281h-70zM269 765l-125 171h58l102 -122l103 122h57l-125 -171h-70z" />
    <glyph glyph-name="hcircumflex" unicode="&#x125;" horiz-adv-x="628" 
d="M98 0v705h68v-318h2q23 53 70.5 84.5t108.5 31.5q62 0 103 -21.5t61.5 -64.5t20.5 -108v-309h-70v305q0 40 -12 70.5t-39.5 47.5t-73.5 17q-49 0 -87 -22t-60 -58.5t-22 -78.5v-281h-70zM144 765l125 171h70l125 -171h-58l-102 122l-103 -122h-57z" />
    <glyph glyph-name="uni1E25" unicode="&#x1e25;" horiz-adv-x="628" 
d="M98 0v705h68v-318h2q23 53 70.5 84.5t108.5 31.5q62 0 103 -21.5t61.5 -64.5t20.5 -108v-309h-70v305q0 40 -12 70.5t-39.5 47.5t-73.5 17q-49 0 -87 -22t-60 -58.5t-22 -78.5v-281h-70zM279 -184v83h84v-83h-84z" />
    <glyph glyph-name="i" unicode="i" horiz-adv-x="265" 
d="M88 621v84h89v-84h-89zM98 0v494h70v-494h-70z" />
    <glyph glyph-name="dotlessi" unicode="&#x131;" horiz-adv-x="265" 
d="M98 0v494h70v-494h-70z" />
    <glyph glyph-name="iacute" unicode="&#xed;" horiz-adv-x="265" 
d="M98 0v494h70v-494h-70zM103 559l104 194h81l-129 -194h-56z" />
    <glyph glyph-name="ibreve" unicode="&#x12d;" horiz-adv-x="265" 
d="M98 0v494h70v-494h-70zM132 556q-46 0 -79.5 23.5t-52 67t-21.5 101.5l51 6q4 -69 29 -105.5t73 -36.5q47 0 72.5 36.5t29.5 105.5l51 -6q-2 -58 -21.5 -101.5t-52.5 -67t-79 -23.5z" />
    <glyph glyph-name="icircumflex" unicode="&#xee;" horiz-adv-x="265" 
d="M98 0v494h70v-494h-70zM-15 566l111 187h72l111 -187h-54l-93 136l-92 -136h-55z" />
    <glyph glyph-name="uni0209" unicode="&#x209;" horiz-adv-x="265" 
d="M98 0v494h70v-494h-70zM173 559l-82 194h70l55 -194h-43zM49 559l-82 194h70l54 -194h-42z" />
    <glyph glyph-name="idieresis" unicode="&#xef;" horiz-adv-x="265" 
d="M98 0v494h70v-494h-70zM186 621v82h82v-82h-82zM-4 621v82h82v-82h-82z" />
    <glyph glyph-name="uni1E2F" unicode="&#x1e2f;" horiz-adv-x="265" 
d="M98 0v494h70v-494h-70zM104 671l91 146h81l-118 -146h-54zM-3 560v75h83v-75h-83zM184 560v75h83v-75h-83z" />
    <glyph glyph-name="i.loclTRK" horiz-adv-x="265" 
d="M98 0v494h70v-494h-70zM90 622v83h84v-83h-84z" />
    <glyph glyph-name="uni1ECB" unicode="&#x1ecb;" horiz-adv-x="265" 
d="M88 621v84h89v-84h-89zM98 0v494h70v-494h-70zM87 -184v83h84v-83h-84z" />
    <glyph glyph-name="igrave" unicode="&#xec;" horiz-adv-x="265" 
d="M98 0v494h70v-494h-70zM105 560l-129 193h82l103 -193h-56z" />
    <glyph glyph-name="uni1EC9" unicode="&#x1ec9;" horiz-adv-x="265" 
d="M98 0v494h70v-494h-70zM105 560v20q0 24 9.5 39t22.5 25.5t23 21.5t10 26q0 14 -12 21.5t-37 7.5q-15 0 -30.5 -4t-33.5 -12l-13 43q18 11 41 16t51 5q46 0 72 -17.5t26 -50.5q0 -25 -11 -40.5t-26 -26t-26.5 -24t-11.5 -35.5v-15h-54z" />
    <glyph glyph-name="uni020B" unicode="&#x20b;" horiz-adv-x="265" 
d="M98 0v494h70v-494h-70zM30 556l-51 6q3 59 21.5 102t52.5 66.5t79 23.5q46 0 79.5 -23.5t52.5 -66.5t21 -102l-51 -6q-4 69 -29 105.5t-73 36.5q-47 0 -72.5 -36.5t-29.5 -105.5z" />
    <glyph glyph-name="ij" unicode="&#x133;" horiz-adv-x="508" 
d="M88 621v84h89v-84h-89zM98 0v494h70v-494h-70zM343 621v84h89v-84h-89zM209 -193l-5 61l49 6q48 5 74 30.5t26 80.5v509h70v-507q0 -41 -10.5 -71.5t-30.5 -52t-50 -34t-71 -17.5z" />
    <glyph glyph-name="imacron" unicode="&#x12b;" horiz-adv-x="265" 
d="M98 0v494h70v-494h-70zM-25 636v56h314v-56h-314z" />
    <glyph glyph-name="iogonek" unicode="&#x12f;" horiz-adv-x="265" 
d="M98 0v494h70v-494h-70zM87 621v84h90v-84h-90zM142 -194q-46 0 -76 26t-30 69q0 39 27 75t71 59l28 -35q-15 -7 -31 -19.5t-26.5 -30.5t-10.5 -39q0 -29 16.5 -41t39.5 -12q12 0 25.5 3t26.5 9l17 -47q-13 -7 -32.5 -12t-44.5 -5z" />
    <glyph glyph-name="itilde" unicode="&#x129;" horiz-adv-x="265" 
d="M98 0v494h70v-494h-70zM1 599l-46 3q5 62 32.5 96.5t70.5 34.5q26 0 46.5 -13.5t39.5 -30.5q16 -14 30 -24t29 -10q26 0 40 20.5t20 59.5l46 -3q-5 -62 -32.5 -96.5t-69.5 -34.5q-27 0 -47.5 14t-39.5 30q-16 15 -30 24t-29 9q-26 0 -40 -20t-20 -59z" />
    <glyph glyph-name="j" unicode="j" horiz-adv-x="243" 
d="M78 621v84h89v-84h-89zM-56 -193l-5 61l49 6q48 5 74 30.5t26 80.5v509h70v-507q0 -41 -10.5 -71.5t-30.5 -52t-50 -34t-71 -17.5z" />
    <glyph glyph-name="uni0237" unicode="&#x237;" horiz-adv-x="243" 
d="M-56 -193l-5 61l49 6q48 5 74 30.5t26 80.5v509h70v-507q0 -41 -10.5 -71.5t-30.5 -52t-50 -34t-71 -17.5z" />
    <glyph glyph-name="jcircumflex" unicode="&#x135;" horiz-adv-x="243" 
d="M-56 -193l-5 61l49 6q48 5 74 30.5t26 80.5v509h70v-507q0 -41 -10.5 -71.5t-30.5 -52t-50 -34t-71 -17.5zM-24 566l111 187h72l111 -187h-54l-93 136l-92 -136h-55z" />
    <glyph glyph-name="k" unicode="k" horiz-adv-x="532" 
d="M98 0v705h70v-434h4l236 223h90l-276 -257l2 35l303 -272h-93l-262 233h-4v-233h-70z" />
    <glyph glyph-name="uni01E9" unicode="&#x1e9;" horiz-adv-x="532" 
d="M98 0v705h70v-434h4l236 223h90l-276 -257l2 35l303 -272h-93l-262 233h-4v-233h-70zM269 765l-125 171h58l102 -122l103 122h57l-125 -171h-70z" />
    <glyph glyph-name="uni0137" unicode="&#x137;" horiz-adv-x="532" 
d="M98 0v705h70v-434h4l236 223h90l-276 -257l2 35l303 -272h-93l-262 233h-4v-233h-70zM260 -284l-35 27q24 23 32.5 48t8.5 52l13 -10h-59v85h92v-66q0 -40 -12.5 -74t-39.5 -62z" />
    <glyph glyph-name="kgreenlandic" unicode="&#x138;" horiz-adv-x="532" 
d="M98 0v494h70v-223h4l236 223h90l-276 -257l2 35l303 -272h-93l-262 233h-4v-233h-70z" />
    <glyph glyph-name="l" unicode="l" horiz-adv-x="319" 
d="M236 -8q-64 0 -101 39.5t-37 109.5v564h70v-555q0 -30 9.5 -52.5t27 -34t41.5 -11.5q15 0 29.5 2t29.5 6l1 -59q-16 -4 -32.5 -6.5t-37.5 -2.5z" />
    <glyph glyph-name="lacute" unicode="&#x13a;" horiz-adv-x="319" 
d="M236 -8q-64 0 -101 39.5t-37 109.5v564h70v-555q0 -30 9.5 -52.5t27 -34t41.5 -11.5q15 0 29.5 2t29.5 6l1 -59q-16 -4 -32.5 -6.5t-37.5 -2.5zM103 765l118 171h89l-146 -171h-61z" />
    <glyph glyph-name="lcaron" unicode="&#x13e;" horiz-adv-x="319" 
d="M236 -8q-64 0 -101 39.5t-37 109.5v564h70v-555q0 -30 9.5 -52.5t27 -34t41.5 -11.5q15 0 29.5 2t29.5 6l1 -59q-16 -4 -32.5 -6.5t-37.5 -2.5zM217 515v190h65l-23 -190h-42z" />
    <glyph glyph-name="uni013C" unicode="&#x13c;" horiz-adv-x="319" 
d="M236 -8q-64 0 -101 39.5t-37 109.5v564h70v-555q0 -30 9.5 -52.5t27 -34t41.5 -11.5q15 0 29.5 2t29.5 6l1 -59q-16 -4 -32.5 -6.5t-37.5 -2.5zM195 -283l-35 27q24 23 32.5 48t8.5 52l13 -10h-59v85h92v-66q0 -40 -12.5 -74t-39.5 -62z" />
    <glyph glyph-name="ldot" unicode="&#x140;" horiz-adv-x="337" 
d="M236 -8q-64 0 -101 39.5t-37 109.5v564h70v-555q0 -30 9.5 -52.5t27 -34t41.5 -11.5q15 0 29.5 2t29.5 6l1 -59q-16 -4 -32.5 -6.5t-37.5 -2.5zM254 316v83h93v-83h-93z" />
    <glyph glyph-name="uni1E37" unicode="&#x1e37;" horiz-adv-x="319" 
d="M236 -8q-64 0 -101 39.5t-37 109.5v564h70v-555q0 -30 9.5 -52.5t27 -34t41.5 -11.5q15 0 29.5 2t29.5 6l1 -59q-16 -4 -32.5 -6.5t-37.5 -2.5zM159 -183v83h84v-83h-84z" />
    <glyph glyph-name="uni01C9" unicode="&#x1c9;" horiz-adv-x="561" 
d="M236 -8q-64 0 -101 39.5t-37 109.5v564h70v-555q0 -30 9.5 -52.5t27 -34t41.5 -11.5q15 0 29.5 2t29.5 6l1 -59q-16 -4 -32.5 -6.5t-37.5 -2.5zM397 621v84h89v-84h-89zM263 -193l-5 61l49 6q48 5 74 30.5t26 80.5v509h70v-507q0 -41 -10.5 -71.5t-30.5 -52t-50 -34
t-71 -17.5z" />
    <glyph glyph-name="uni1E3B" unicode="&#x1e3b;" horiz-adv-x="319" 
d="M236 -8q-64 0 -101 39.5t-37 109.5v564h70v-555q0 -30 9.5 -52.5t27 -34t41.5 -11.5q15 0 29.5 2t29.5 6l1 -59q-16 -4 -32.5 -6.5t-37.5 -2.5zM44 -157v57h314v-57h-314z" />
    <glyph glyph-name="lslash" unicode="&#x142;" horiz-adv-x="319" 
d="M236 -8q-64 0 -101 39.5t-37 109.5v564h70v-555q0 -30 9.5 -52.5t27 -34t41.5 -11.5q15 0 29.5 2t29.5 6l1 -59q-16 -4 -32.5 -6.5t-37.5 -2.5zM29 257l-30 52l256 149l30 -53z" />
    <glyph glyph-name="m" unicode="m" horiz-adv-x="944" 
d="M100 0v494h64v-109h3q12 30 35.5 57t56.5 44t74 17q67 0 110.5 -34t51.5 -85h2q20 49 63 84t110 35q56 0 95.5 -21.5t60 -64t20.5 -108.5v-309h-69v302q0 68 -25 103t-91 35q-49 0 -83.5 -22t-52.5 -58.5t-18 -81.5v-278h-69v302q0 66 -29.5 102t-85.5 36
q-48 0 -82.5 -24t-53 -60.5t-18.5 -73.5v-282h-69z" />
    <glyph glyph-name="uni1E43" unicode="&#x1e43;" horiz-adv-x="944" 
d="M100 0v494h64v-109h3q12 30 35.5 57t56.5 44t74 17q67 0 110.5 -34t51.5 -85h2q20 49 63 84t110 35q56 0 95.5 -21.5t60 -64t20.5 -108.5v-309h-69v302q0 68 -25 103t-91 35q-49 0 -83.5 -22t-52.5 -58.5t-18 -81.5v-278h-69v302q0 66 -29.5 102t-85.5 36
q-48 0 -82.5 -24t-53 -60.5t-18.5 -73.5v-282h-69zM430 -184v83h84v-83h-84z" />
    <glyph glyph-name="n" unicode="n" horiz-adv-x="628" 
d="M98 0v494h65v-109h2q25 54 73 86t109 32q62 0 103 -21.5t61.5 -64.5t20.5 -108v-309h-70v305q0 40 -12 70.5t-39 47.5t-74 17q-49 0 -87.5 -22t-60 -58.5t-21.5 -78.5v-281h-70z" />
    <glyph glyph-name="nacute" unicode="&#x144;" horiz-adv-x="628" 
d="M98 0v494h65v-109h2q25 54 73 86t109 32q62 0 103 -21.5t61.5 -64.5t20.5 -108v-309h-70v305q0 40 -12 70.5t-39 47.5t-74 17q-49 0 -87.5 -22t-60 -58.5t-21.5 -78.5v-281h-70zM297 559l104 194h81l-129 -194h-56z" />
    <glyph glyph-name="napostrophe" unicode="&#x149;" horiz-adv-x="653" 
d="M44 549l-35 27q24 23 32 48t8 51l13 -10h-59v85h94v-65q0 -40 -12.5 -74t-40.5 -62zM123 0v494h65v-109h2q25 54 73 86t109 32q62 0 103 -21.5t61.5 -64.5t20.5 -108v-309h-70v305q0 40 -12 70.5t-39 47.5t-74 17q-49 0 -87.5 -22t-60 -58.5t-21.5 -78.5v-281h-70z" />
    <glyph glyph-name="ncaron" unicode="&#x148;" horiz-adv-x="628" 
d="M98 0v494h65v-109h2q25 54 73 86t109 32q62 0 103 -21.5t61.5 -64.5t20.5 -108v-309h-70v305q0 40 -12 70.5t-39 47.5t-74 17q-49 0 -87.5 -22t-60 -58.5t-21.5 -78.5v-281h-70zM290 559l-111 194h55l92 -143l93 143h54l-111 -194h-72z" />
    <glyph glyph-name="uni0146" unicode="&#x146;" horiz-adv-x="628" 
d="M98 0v494h65v-109h2q25 54 73 86t109 32q62 0 103 -21.5t61.5 -64.5t20.5 -108v-309h-70v305q0 40 -12 70.5t-39 47.5t-74 17q-49 0 -87.5 -22t-60 -58.5t-21.5 -78.5v-281h-70zM304 -284l-35 27q24 23 32.5 48t8.5 52l13 -10h-59v85h92v-66q0 -40 -12.5 -74t-39.5 -62z
" />
    <glyph glyph-name="uni1E45" unicode="&#x1e45;" horiz-adv-x="628" 
d="M98 0v494h65v-109h2q25 54 73 86t109 32q62 0 103 -21.5t61.5 -64.5t20.5 -108v-309h-70v305q0 40 -12 70.5t-39 47.5t-74 17q-49 0 -87.5 -22t-60 -58.5t-21.5 -78.5v-281h-70zM284 622v83h84v-83h-84z" />
    <glyph glyph-name="uni1E47" unicode="&#x1e47;" horiz-adv-x="628" 
d="M98 0v494h65v-109h2q25 54 73 86t109 32q62 0 103 -21.5t61.5 -64.5t20.5 -108v-309h-70v305q0 40 -12 70.5t-39 47.5t-74 17q-49 0 -87.5 -22t-60 -58.5t-21.5 -78.5v-281h-70zM268 -184v83h84v-83h-84z" />
    <glyph glyph-name="uni01CC" unicode="&#x1cc;" horiz-adv-x="871" 
d="M98 0v494h65v-109h2q25 54 73 86t109 32q62 0 103 -21.5t61.5 -64.5t20.5 -108v-309h-70v305q0 40 -12 70.5t-39 47.5t-74 17q-49 0 -87.5 -22t-60 -58.5t-21.5 -78.5v-281h-70zM706 621v84h89v-84h-89zM572 -193l-5 61l49 6q48 5 74 30.5t26 80.5v509h70v-507
q0 -41 -10.5 -71.5t-30.5 -52t-50 -34t-71 -17.5z" />
    <glyph glyph-name="uni1E49" unicode="&#x1e49;" horiz-adv-x="628" 
d="M98 0v494h65v-109h2q25 54 73 86t109 32q62 0 103 -21.5t61.5 -64.5t20.5 -108v-309h-70v305q0 40 -12 70.5t-39 47.5t-74 17q-49 0 -87.5 -22t-60 -58.5t-21.5 -78.5v-281h-70zM153 -158v57h314v-57h-314z" />
    <glyph glyph-name="ntilde" unicode="&#xf1;" horiz-adv-x="628" 
d="M98 0v494h65v-109h2q25 54 73 86t109 32q62 0 103 -21.5t61.5 -64.5t20.5 -108v-309h-70v305q0 40 -12 70.5t-39 47.5t-74 17q-49 0 -87.5 -22t-60 -58.5t-21.5 -78.5v-281h-70zM195 599l-46 3q5 62 32.5 96.5t70.5 34.5q26 0 46.5 -13.5t39.5 -30.5q16 -14 30 -24
t29 -10q26 0 40 20.5t20 59.5l46 -3q-5 -62 -32.5 -96.5t-69.5 -34.5q-27 0 -47.5 14t-39.5 30q-16 15 -30 24t-29 9q-26 0 -40 -20t-20 -59z" />
    <glyph glyph-name="eng" unicode="&#x14b;" horiz-adv-x="628" 
d="M319 -193l-5 61l49 6q48 5 73.5 30.5t25.5 80.5v320q0 40 -12 70.5t-39 47.5t-75 17q-49 0 -87 -22t-59.5 -58.5t-21.5 -78.5v-281h-70v494h65v-109h2q25 54 72 86t108 32q62 0 104 -21.5t62.5 -64.5t20.5 -108v-322q0 -41 -10 -71.5t-30 -52t-50.5 -34t-70.5 -17.5z" />
    <glyph glyph-name="o" unicode="o" horiz-adv-x="613" 
d="M307 -8q-74 0 -128 31.5t-83 89.5t-29 135t29.5 134t83 89t127.5 32t127.5 -32t83 -89t29.5 -134t-29.5 -135t-83 -89.5t-127.5 -31.5zM306 54q79 0 125 53t46 141t-45.5 140t-124.5 52t-124.5 -52t-45.5 -140t45.5 -141t123.5 -53z" />
    <glyph glyph-name="oacute" unicode="&#xf3;" horiz-adv-x="613" 
d="M307 -8q-74 0 -128 31.5t-83 89.5t-29 135t29.5 134t83 89t127.5 32t127.5 -32t83 -89t29.5 -134t-29.5 -135t-83 -89.5t-127.5 -31.5zM306 54q79 0 125 53t46 141t-45.5 140t-124.5 52t-124.5 -52t-45.5 -140t45.5 -141t123.5 -53zM278 559l104 194h81l-129 -194h-56z
" />
    <glyph glyph-name="obreve" unicode="&#x14f;" horiz-adv-x="613" 
d="M307 -8q-74 0 -128 31.5t-83 89.5t-29 135t29.5 134t83 89t127.5 32t127.5 -32t83 -89t29.5 -134t-29.5 -135t-83 -89.5t-127.5 -31.5zM306 54q79 0 125 53t46 141t-45.5 140t-124.5 52t-124.5 -52t-45.5 -140t45.5 -141t123.5 -53zM307 556q-46 0 -79.5 23.5t-52 67
t-21.5 101.5l51 6q4 -69 29 -105.5t73 -36.5q47 0 72.5 36.5t29.5 105.5l51 -6q-2 -58 -21.5 -101.5t-52.5 -67t-79 -23.5z" />
    <glyph glyph-name="ocircumflex" unicode="&#xf4;" horiz-adv-x="613" 
d="M307 -8q-74 0 -128 31.5t-83 89.5t-29 135t29.5 134t83 89t127.5 32t127.5 -32t83 -89t29.5 -134t-29.5 -135t-83 -89.5t-127.5 -31.5zM306 54q79 0 125 53t46 141t-45.5 140t-124.5 52t-124.5 -52t-45.5 -140t45.5 -141t123.5 -53zM160 566l111 187h72l111 -187h-54
l-93 136l-92 -136h-55z" />
    <glyph glyph-name="uni1ED1" unicode="&#x1ed1;" horiz-adv-x="613" 
d="M307 -8q-74 0 -128 31.5t-83 89.5t-29 135t29.5 134t83 89t127.5 32t127.5 -32t83 -89t29.5 -134t-29.5 -135t-83 -89.5t-127.5 -31.5zM306 54q79 0 125 53t46 141t-45.5 140t-124.5 52t-124.5 -52t-45.5 -140t45.5 -141t123.5 -53zM157 567l115 166h70l115 -166h-55
l-95 115l-96 -115h-54zM401 676l82 150h75l-107 -150h-50z" />
    <glyph glyph-name="uni1ED9" unicode="&#x1ed9;" horiz-adv-x="613" 
d="M307 -8q-74 0 -128 31.5t-83 89.5t-29 135t29.5 134t83 89t127.5 32t127.5 -32t83 -89t29.5 -134t-29.5 -135t-83 -89.5t-127.5 -31.5zM306 54q79 0 125 53t46 141t-45.5 140t-124.5 52t-124.5 -52t-45.5 -140t45.5 -141t123.5 -53zM265 -191v83h84v-83h-84zM160 566
l111 187h72l111 -187h-54l-93 136l-92 -136h-55z" />
    <glyph glyph-name="uni1ED3" unicode="&#x1ed3;" horiz-adv-x="613" 
d="M307 -8q-74 0 -128 31.5t-83 89.5t-29 135t29.5 134t83 89t127.5 32t127.5 -32t83 -89t29.5 -134t-29.5 -135t-83 -89.5t-127.5 -31.5zM306 54q79 0 125 53t46 141t-45.5 140t-124.5 52t-124.5 -52t-45.5 -140t45.5 -141t123.5 -53zM157 567l115 166h70l115 -166h-55
l-95 115l-96 -115h-54zM443 676l-107 150h74l83 -150h-50z" />
    <glyph glyph-name="uni1ED5" unicode="&#x1ed5;" horiz-adv-x="613" 
d="M307 -8q-74 0 -128 31.5t-83 89.5t-29 135t29.5 134t83 89t127.5 32t127.5 -32t83 -89t29.5 -134t-29.5 -135t-83 -89.5t-127.5 -31.5zM306 54q79 0 125 53t46 141t-45.5 140t-124.5 52t-124.5 -52t-45.5 -140t45.5 -141t123.5 -53zM157 567l115 166h70l115 -166h-55
l-95 115l-96 -115h-54zM408 679q0 22 9.5 34.5t22 21.5t22 16.5t9.5 17.5q0 13 -13.5 17t-34.5 4q-12 0 -27.5 -2.5t-33.5 -9.5l-12 38q17 9 38 13t50 4q44 0 67.5 -14.5t23.5 -37.5q0 -20 -10.5 -32t-24.5 -21t-24.5 -20t-10.5 -29h-51z" />
    <glyph glyph-name="uni1ED7" unicode="&#x1ed7;" horiz-adv-x="613" 
d="M307 -8q-74 0 -128 31.5t-83 89.5t-29 135t29.5 134t83 89t127.5 32t127.5 -32t83 -89t29.5 -134t-29.5 -135t-83 -89.5t-127.5 -31.5zM306 54q79 0 125 53t46 141t-45.5 140t-124.5 52t-124.5 -52t-45.5 -140t45.5 -141t123.5 -53zM157 567l115 137h70l115 -137h-55
l-95 91l-96 -91h-54zM194 729l-46 3q3 34 14 57t31 35t48 12q23 0 41 -9t36 -21q15 -10 28 -17t25 -7q22 0 33.5 12.5t15.5 43.5l47 -4q-4 -49 -28 -76t-66 -27q-22 0 -40 9.5t-36 21.5q-14 9 -27 16t-27 7q-20 0 -32 -12t-17 -44z" />
    <glyph glyph-name="uni020D" unicode="&#x20d;" horiz-adv-x="613" 
d="M307 -8q-74 0 -128 31.5t-83 89.5t-29 135t29.5 134t83 89t127.5 32t127.5 -32t83 -89t29.5 -134t-29.5 -135t-83 -89.5t-127.5 -31.5zM306 54q79 0 125 53t46 141t-45.5 140t-124.5 52t-124.5 -52t-45.5 -140t45.5 -141t123.5 -53zM348 559l-82 194h70l55 -194h-43z
M224 559l-82 194h70l54 -194h-42z" />
    <glyph glyph-name="odieresis" unicode="&#xf6;" horiz-adv-x="613" 
d="M307 -8q-74 0 -128 31.5t-83 89.5t-29 135t29.5 134t83 89t127.5 32t127.5 -32t83 -89t29.5 -134t-29.5 -135t-83 -89.5t-127.5 -31.5zM306 54q79 0 125 53t46 141t-45.5 140t-124.5 52t-124.5 -52t-45.5 -140t45.5 -141t123.5 -53zM361 621v82h82v-82h-82zM171 621v82
h82v-82h-82z" />
    <glyph glyph-name="uni022B" unicode="&#x22b;" horiz-adv-x="613" 
d="M307 -8q-74 0 -128 31.5t-83 89.5t-29 135t29.5 134t83 89t127.5 32t127.5 -32t83 -89t29.5 -134t-29.5 -135t-83 -89.5t-127.5 -31.5zM306 54q79 0 125 53t46 141t-45.5 140t-124.5 52t-124.5 -52t-45.5 -140t45.5 -141t123.5 -53zM150 720v55h314v-55h-314zM172 590v75
h83v-75h-83zM359 590v75h83v-75h-83z" />
    <glyph glyph-name="uni0231" unicode="&#x231;" horiz-adv-x="613" 
d="M307 -8q-74 0 -128 31.5t-83 89.5t-29 135t29.5 134t83 89t127.5 32t127.5 -32t83 -89t29.5 -134t-29.5 -135t-83 -89.5t-127.5 -31.5zM306 54q79 0 125 53t46 141t-45.5 140t-124.5 52t-124.5 -52t-45.5 -140t45.5 -141t123.5 -53zM158 723v53h298v-53h-298zM266 590v75
h83v-75h-83z" />
    <glyph glyph-name="uni1ECD" unicode="&#x1ecd;" horiz-adv-x="613" 
d="M307 -8q-74 0 -128 31.5t-83 89.5t-29 135t29.5 134t83 89t127.5 32t127.5 -32t83 -89t29.5 -134t-29.5 -135t-83 -89.5t-127.5 -31.5zM306 54q79 0 125 53t46 141t-45.5 140t-124.5 52t-124.5 -52t-45.5 -140t45.5 -141t123.5 -53zM265 -191v83h84v-83h-84z" />
    <glyph glyph-name="ograve" unicode="&#xf2;" horiz-adv-x="613" 
d="M307 -8q-74 0 -128 31.5t-83 89.5t-29 135t29.5 134t83 89t127.5 32t127.5 -32t83 -89t29.5 -134t-29.5 -135t-83 -89.5t-127.5 -31.5zM306 54q79 0 125 53t46 141t-45.5 140t-124.5 52t-124.5 -52t-45.5 -140t45.5 -141t123.5 -53zM280 560l-129 193h82l103 -193h-56z
" />
    <glyph glyph-name="uni1ECF" unicode="&#x1ecf;" horiz-adv-x="613" 
d="M307 -8q-74 0 -128 31.5t-83 89.5t-29 135t29.5 134t83 89t127.5 32t127.5 -32t83 -89t29.5 -134t-29.5 -135t-83 -89.5t-127.5 -31.5zM306 54q79 0 125 53t46 141t-45.5 140t-124.5 52t-124.5 -52t-45.5 -140t45.5 -141t123.5 -53zM280 560v20q0 24 9.5 39t22.5 25.5
t23 21.5t10 26q0 14 -12 21.5t-37 7.5q-15 0 -30.5 -4t-33.5 -12l-13 43q18 11 41 16t51 5q46 0 72 -17.5t26 -50.5q0 -25 -11 -40.5t-26 -26t-26.5 -24t-11.5 -35.5v-15h-54z" />
    <glyph glyph-name="ohorn" unicode="&#x1a1;" horiz-adv-x="613" 
d="M307 -8q-74 0 -128 31.5t-83 89.5t-29 135t29.5 134t83 89t127.5 32t127.5 -32t83 -89t29.5 -134t-29.5 -135t-83 -89.5t-127.5 -31.5zM306 54q79 0 125 53t46 141t-45.5 140t-124.5 52t-124.5 -52t-45.5 -140t45.5 -141t123.5 -53zM394 446l-35 25v23q46 1 70 14
t33 38.5t9 62.5v14h65v-25q0 -45 -16.5 -78t-48 -52t-77.5 -22z" />
    <glyph glyph-name="uni1EDB" unicode="&#x1edb;" horiz-adv-x="613" 
d="M307 -8q-74 0 -128 31.5t-83 89.5t-29 135t29.5 134t83 89t127.5 32t127.5 -32t83 -89t29.5 -134t-29.5 -135t-83 -89.5t-127.5 -31.5zM306 54q79 0 125 53t46 141t-45.5 140t-124.5 52t-124.5 -52t-45.5 -140t45.5 -141t123.5 -53zM394 446l-35 25v23q46 1 70 14
t33 38.5t9 62.5v14h65v-25q0 -45 -16.5 -78t-48 -52t-77.5 -22zM259 559l104 194h81l-129 -194h-56z" />
    <glyph glyph-name="uni1EE3" unicode="&#x1ee3;" horiz-adv-x="613" 
d="M307 -8q-74 0 -128 31.5t-83 89.5t-29 135t29.5 134t83 89t127.5 32t127.5 -32t83 -89t29.5 -134t-29.5 -135t-83 -89.5t-127.5 -31.5zM306 54q79 0 125 53t46 141t-45.5 140t-124.5 52t-124.5 -52t-45.5 -140t45.5 -141t123.5 -53zM394 446l-35 25v23q46 1 70 14
t33 38.5t9 62.5v14h65v-25q0 -45 -16.5 -78t-48 -52t-77.5 -22zM265 -184v83h84v-83h-84z" />
    <glyph glyph-name="uni1EDD" unicode="&#x1edd;" horiz-adv-x="613" 
d="M307 -8q-74 0 -128 31.5t-83 89.5t-29 135t29.5 134t83 89t127.5 32t127.5 -32t83 -89t29.5 -134t-29.5 -135t-83 -89.5t-127.5 -31.5zM306 54q79 0 125 53t46 141t-45.5 140t-124.5 52t-124.5 -52t-45.5 -140t45.5 -141t123.5 -53zM394 446l-35 25v23q46 1 70 14
t33 38.5t9 62.5v14h65v-25q0 -45 -16.5 -78t-48 -52t-77.5 -22zM261 560l-129 193h82l103 -193h-56z" />
    <glyph glyph-name="uni1EDF" unicode="&#x1edf;" horiz-adv-x="613" 
d="M307 -8q-74 0 -128 31.5t-83 89.5t-29 135t29.5 134t83 89t127.5 32t127.5 -32t83 -89t29.5 -134t-29.5 -135t-83 -89.5t-127.5 -31.5zM306 54q79 0 125 53t46 141t-45.5 140t-124.5 52t-124.5 -52t-45.5 -140t45.5 -141t123.5 -53zM394 446l-35 25v23q46 1 70 14
t33 38.5t9 62.5v14h65v-25q0 -45 -16.5 -78t-48 -52t-77.5 -22zM261 560v20q0 24 9.5 39t22.5 25.5t23 21.5t10 26q0 14 -12 21.5t-37 7.5q-15 0 -30.5 -4t-33.5 -12l-13 43q18 11 41 16t51 5q46 0 72 -17.5t26 -50.5q0 -25 -11 -40.5t-26 -26t-26.5 -24t-11.5 -35.5v-15
h-54z" />
    <glyph glyph-name="uni1EE1" unicode="&#x1ee1;" horiz-adv-x="613" 
d="M307 -8q-74 0 -128 31.5t-83 89.5t-29 135t29.5 134t83 89t127.5 32t127.5 -32t83 -89t29.5 -134t-29.5 -135t-83 -89.5t-127.5 -31.5zM306 54q79 0 125 53t46 141t-45.5 140t-124.5 52t-124.5 -52t-45.5 -140t45.5 -141t123.5 -53zM394 446l-35 25v23q46 1 70 14
t33 38.5t9 62.5v14h65v-25q0 -45 -16.5 -78t-48 -52t-77.5 -22zM160 602l-48 2q6 64 32 97.5t69 33.5q26 0 46 -13t39 -31q15 -14 29 -24t30 -10q24 0 38.5 20.5t20.5 60.5l47 -3q-6 -64 -32 -97.5t-68 -33.5q-27 0 -47 14t-38 30q-16 15 -29.5 25t-29.5 10q-26 0 -40 -22
t-19 -59z" />
    <glyph glyph-name="ohungarumlaut" unicode="&#x151;" horiz-adv-x="613" 
d="M307 -8q-74 0 -128 31.5t-83 89.5t-29 135t29.5 134t83 89t127.5 32t127.5 -32t83 -89t29.5 -134t-29.5 -135t-83 -89.5t-127.5 -31.5zM306 54q79 0 125 53t46 141t-45.5 140t-124.5 52t-124.5 -52t-45.5 -140t45.5 -141t123.5 -53zM348 560l54 193h70l-82 -193h-42z
M223 560l55 193h70l-82 -193h-43z" />
    <glyph glyph-name="uni020F" unicode="&#x20f;" horiz-adv-x="613" 
d="M307 -8q-74 0 -128 31.5t-83 89.5t-29 135t29.5 134t83 89t127.5 32t127.5 -32t83 -89t29.5 -134t-29.5 -135t-83 -89.5t-127.5 -31.5zM306 54q79 0 125 53t46 141t-45.5 140t-124.5 52t-124.5 -52t-45.5 -140t45.5 -141t123.5 -53zM205 556l-51 6q3 59 21.5 102
t52.5 66.5t79 23.5q46 0 79.5 -23.5t52.5 -66.5t21 -102l-51 -6q-4 69 -29 105.5t-73 36.5q-47 0 -72.5 -36.5t-29.5 -105.5z" />
    <glyph glyph-name="omacron" unicode="&#x14d;" horiz-adv-x="613" 
d="M307 -8q-74 0 -128 31.5t-83 89.5t-29 135t29.5 134t83 89t127.5 32t127.5 -32t83 -89t29.5 -134t-29.5 -135t-83 -89.5t-127.5 -31.5zM306 54q79 0 125 53t46 141t-45.5 140t-124.5 52t-124.5 -52t-45.5 -140t45.5 -141t123.5 -53zM150 636v56h314v-56h-314z" />
    <glyph glyph-name="uni1E53" unicode="&#x1e53;" horiz-adv-x="613" 
d="M307 -8q-74 0 -128 31.5t-83 89.5t-29 135t29.5 134t83 89t127.5 32t127.5 -32t83 -89t29.5 -134t-29.5 -135t-83 -89.5t-127.5 -31.5zM306 54q79 0 125 53t46 141t-45.5 140t-124.5 52t-124.5 -52t-45.5 -140t45.5 -141t123.5 -53zM158 585v54h298v-54h-298zM267 677
l90 146h81l-118 -146h-53z" />
    <glyph glyph-name="uni1E51" unicode="&#x1e51;" horiz-adv-x="613" 
d="M307 -8q-74 0 -128 31.5t-83 89.5t-29 135t29.5 134t83 89t127.5 32t127.5 -32t83 -89t29.5 -134t-29.5 -135t-83 -89.5t-127.5 -31.5zM306 54q79 0 125 53t46 141t-45.5 140t-124.5 52t-124.5 -52t-45.5 -140t45.5 -141t123.5 -53zM158 585v54h298v-54h-298zM294 677
l-118 146h81l90 -146h-53z" />
    <glyph glyph-name="uni01EB" unicode="&#x1eb;" horiz-adv-x="613" 
d="M307 -8q-74 0 -128 31.5t-83 89.5t-29 135t29.5 134t83 89t127.5 32t127.5 -32t83 -89t29.5 -134t-29.5 -135t-83 -89.5t-127.5 -31.5zM306 54q79 0 125 53t46 141t-45.5 140t-124.5 52t-124.5 -52t-45.5 -140t45.5 -141t123.5 -53zM350 -194q-46 0 -76 26t-30 69
q0 39 27 75t71 59l28 -35q-15 -7 -31 -19.5t-26.5 -30.5t-10.5 -39q0 -29 16.5 -41t39.5 -12q12 0 25.5 3t26.5 9l17 -47q-13 -7 -32.5 -12t-44.5 -5z" />
    <glyph glyph-name="oslash" unicode="&#xf8;" horiz-adv-x="613" 
d="M307 -8q-74 0 -127.5 32t-83 89.5t-29.5 134.5t29.5 134t83 89t127.5 32t127.5 -32t83 -89t29.5 -134t-29.5 -134.5t-83 -89.5t-127.5 -32zM306 51q80 0 126 54t46 143t-45.5 142t-125.5 53q-81 0 -126.5 -53t-45.5 -142t46 -143t125 -54zM167 -43l-46 26l326 554l45 -26
z" />
    <glyph glyph-name="oslashacute" unicode="&#x1ff;" horiz-adv-x="613" 
d="M307 -8q-74 0 -127.5 32t-83 89.5t-29.5 134.5t29.5 134t83 89t127.5 32t127.5 -32t83 -89t29.5 -134t-29.5 -134.5t-83 -89.5t-127.5 -32zM306 51q80 0 126 54t46 143t-45.5 142t-125.5 53q-81 0 -126.5 -53t-45.5 -142t46 -143t125 -54zM167 -43l-46 26l326 554l45 -26
zM278 559l104 194h81l-129 -194h-56z" />
    <glyph glyph-name="otilde" unicode="&#xf5;" horiz-adv-x="613" 
d="M307 -8q-74 0 -128 31.5t-83 89.5t-29 135t29.5 134t83 89t127.5 32t127.5 -32t83 -89t29.5 -134t-29.5 -135t-83 -89.5t-127.5 -31.5zM306 54q79 0 125 53t46 141t-45.5 140t-124.5 52t-124.5 -52t-45.5 -140t45.5 -141t123.5 -53zM176 599l-46 3q5 62 32.5 96.5
t70.5 34.5q26 0 46.5 -13.5t39.5 -30.5q16 -14 30 -24t29 -10q26 0 40 20.5t20 59.5l46 -3q-5 -62 -32.5 -96.5t-69.5 -34.5q-27 0 -47.5 14t-39.5 30q-16 15 -30 24t-29 9q-26 0 -40 -20t-20 -59z" />
    <glyph glyph-name="uni1E4D" unicode="&#x1e4d;" horiz-adv-x="613" 
d="M307 -8q-74 0 -128 31.5t-83 89.5t-29 135t29.5 134t83 89t127.5 32t127.5 -32t83 -89t29.5 -134t-29.5 -135t-83 -89.5t-127.5 -31.5zM306 54q79 0 125 53t46 141t-45.5 140t-124.5 52t-124.5 -52t-45.5 -140t45.5 -141t123.5 -53zM194 554l-46 2q3 34 14.5 57.5
t31.5 35t47 11.5q23 0 41 -9.5t36 -21.5q15 -10 28 -17t25 -7q23 0 34 14t15 42l47 -2q-4 -51 -29 -77t-65 -26q-22 0 -40 9t-36 21q-14 10 -27 17t-27 7q-22 0 -33 -14t-16 -42zM280 679l91 146h81l-118 -146h-54z" />
    <glyph glyph-name="uni1E4F" unicode="&#x1e4f;" horiz-adv-x="613" 
d="M307 -8q-74 0 -128 31.5t-83 89.5t-29 135t29.5 134t83 89t127.5 32t127.5 -32t83 -89t29.5 -134t-29.5 -135t-83 -89.5t-127.5 -31.5zM306 54q79 0 125 53t46 141t-45.5 140t-124.5 52t-124.5 -52t-45.5 -140t45.5 -141t123.5 -53zM194 554l-46 2q3 34 14.5 57.5
t31.5 35t47 11.5q23 0 41 -9.5t36 -21.5q15 -10 28 -17t25 -7q23 0 34 14t15 42l47 -2q-4 -51 -29 -77t-65 -26q-22 0 -40 9t-36 21q-14 10 -27 17t-27 7q-22 0 -33 -14t-16 -42zM172 703v74h83v-74h-83zM359 703v74h83v-74h-83z" />
    <glyph glyph-name="uni022D" unicode="&#x22d;" horiz-adv-x="613" 
d="M307 -8q-74 0 -128 31.5t-83 89.5t-29 135t29.5 134t83 89t127.5 32t127.5 -32t83 -89t29.5 -134t-29.5 -135t-83 -89.5t-127.5 -31.5zM306 54q79 0 125 53t46 141t-45.5 140t-124.5 52t-124.5 -52t-45.5 -140t45.5 -141t123.5 -53zM150 717v54h314v-54h-314zM194 554
l-46 2q3 34 14.5 57.5t31.5 35t47 11.5q23 0 41 -9.5t36 -21.5q15 -10 28 -17t25 -7q23 0 34 14t15 42l47 -2q-4 -51 -29 -77t-65 -26q-22 0 -40 9t-36 21q-14 10 -27 17t-27 7q-22 0 -33 -14t-16 -42z" />
    <glyph glyph-name="oe" unicode="&#x153;" horiz-adv-x="1007" 
d="M306 -8q-73 0 -126.5 32t-83 89.5t-29.5 134.5q0 76 29.5 133.5t83 89.5t126.5 32q71 0 127.5 -39t77.5 -109v0q21 69 76.5 108.5t133.5 39.5q69 0 118 -31.5t75.5 -85.5t26.5 -122v-36h-415v55h374l-21 -21q0 52 -17.5 93t-52.5 65.5t-89 24.5q-52 0 -91 -23t-61 -64.5
t-22 -100.5v-10q0 -67 24.5 -110t67 -64t96.5 -21q48 0 90 11.5t81 43.5l27 -52q-37 -33 -89 -48t-110 -15q-54 0 -98.5 15t-76 47.5t-48.5 84.5v0q-12 -41 -40.5 -74t-70.5 -53t-93 -20zM306 54q52 0 90 24t59.5 67.5t21.5 102.5t-21.5 102t-59.5 66.5t-89 23.5
q-52 0 -90 -23.5t-59 -66.5t-21 -102t21 -102.5t59.5 -67.5t88.5 -24z" />
    <glyph glyph-name="p" unicode="p" horiz-adv-x="644" 
d="M98 -180v674h64v-109h3q23 56 71 87t112 31q69 0 121 -32t80.5 -89.5t28.5 -134.5q0 -75 -28.5 -133t-80 -90t-120.5 -32q-64 0 -110.5 30.5t-68.5 83.5h-2v-286h-70zM337 52q79 0 124.5 53.5t45.5 142.5t-45.5 141.5t-124.5 52.5t-124.5 -52.5t-45.5 -141.5t45.5 -142.5
t124.5 -53.5z" />
    <glyph glyph-name="thorn" unicode="&#xfe;" horiz-adv-x="644" 
d="M98 -180v885h67v-318h3q23 54 69.5 85t110.5 31q70 0 121.5 -32.5t80 -89.5t28.5 -134q0 -76 -28.5 -134t-80.5 -89.5t-120 -31.5q-63 0 -110 30t-69 84h-2v-286h-70zM337 52q79 0 124.5 53.5t45.5 142.5t-45.5 141.5t-124.5 52.5t-124.5 -52.5t-45.5 -141.5t45.5 -142.5
t124.5 -53.5z" />
    <glyph glyph-name="q" unicode="q" horiz-adv-x="644" 
d="M477 -180v286h-3q-21 -54 -67.5 -84t-111.5 -30q-68 0 -119.5 32t-80 89.5t-28.5 133.5q0 77 28.5 134.5t80 89.5t120.5 32q65 0 112.5 -31t70.5 -88h3v110h65v-674h-70zM308 52q79 0 124 53.5t45 142.5q0 88 -45 141t-125 53q-79 0 -124.5 -53t-45.5 -141
q0 -89 46 -142.5t125 -53.5z" />
    <glyph glyph-name="r" unicode="r" horiz-adv-x="420" 
d="M98 0v494h64v-109h3q19 52 66 82t112 34l44 2l7 -65l-69 -6q-73 -6 -115 -48t-42 -102v-282h-70z" />
    <glyph glyph-name="racute" unicode="&#x155;" horiz-adv-x="420" 
d="M98 0v494h64v-109h3q19 52 66 82t112 34l44 2l7 -65l-69 -6q-73 -6 -115 -48t-42 -102v-282h-70zM206 559l104 194h81l-129 -194h-56z" />
    <glyph glyph-name="rcaron" unicode="&#x159;" horiz-adv-x="420" 
d="M98 0v494h64v-109h3q19 52 66 82t112 34l44 2l7 -65l-69 -6q-73 -6 -115 -48t-42 -102v-282h-70zM199 559l-111 194h55l92 -143l93 143h54l-111 -194h-72z" />
    <glyph glyph-name="uni0157" unicode="&#x157;" horiz-adv-x="420" 
d="M98 0v494h64v-109h3q19 52 66 82t112 34l44 2l7 -65l-69 -6q-73 -6 -115 -48t-42 -102v-282h-70zM127 -284l-35 27q24 23 32.5 48t8.5 52l13 -10h-59v85h92v-66q0 -40 -12.5 -74t-39.5 -62z" />
    <glyph glyph-name="uni0211" unicode="&#x211;" horiz-adv-x="420" 
d="M98 0v494h64v-109h3q19 52 66 82t112 34l44 2l7 -65l-69 -6q-73 -6 -115 -48t-42 -102v-282h-70zM276 559l-82 194h70l55 -194h-43zM152 559l-82 194h70l54 -194h-42z" />
    <glyph glyph-name="uni1E5B" unicode="&#x1e5b;" horiz-adv-x="420" 
d="M98 0v494h64v-109h3q19 52 66 82t112 34l44 2l7 -65l-69 -6q-73 -6 -115 -48t-42 -102v-282h-70zM91 -184v83h84v-83h-84z" />
    <glyph glyph-name="uni0213" unicode="&#x213;" horiz-adv-x="420" 
d="M98 0v494h64v-109h3q19 52 66 82t112 34l44 2l7 -65l-69 -6q-73 -6 -115 -48t-42 -102v-282h-70zM133 556l-51 6q3 59 21.5 102t52.5 66.5t79 23.5q46 0 79.5 -23.5t52.5 -66.5t21 -102l-51 -6q-4 69 -29 105.5t-73 36.5q-47 0 -72.5 -36.5t-29.5 -105.5z" />
    <glyph glyph-name="uni1E5F" unicode="&#x1e5f;" horiz-adv-x="420" 
d="M98 0v494h64v-109h3q19 52 66 82t112 34l44 2l7 -65l-69 -6q-73 -6 -115 -48t-42 -102v-282h-70zM-24 -158v57h314v-57h-314z" />
    <glyph glyph-name="s" unicode="s" horiz-adv-x="551" 
d="M277 -8q-40 0 -79.5 7.5t-73 21.5t-56.5 35l26 52q26 -21 57 -33.5t64 -17.5t63 -5q65 0 103 21t38 57q0 33 -22 50.5t-72 26.5l-103 19q-69 12 -104.5 45t-35.5 89q0 43 24.5 75t69 50t105.5 18q35 0 72.5 -7.5t70 -21.5t51.5 -35l-27 -51q-21 20 -49.5 32t-59 17.5
t-59.5 5.5q-60 0 -95.5 -22t-35.5 -59q0 -32 20.5 -49.5t66.5 -26.5l101 -19q75 -14 111.5 -46t36.5 -88q0 -43 -25.5 -75t-72.5 -49t-110 -17z" />
    <glyph glyph-name="sacute" unicode="&#x15b;" horiz-adv-x="551" 
d="M277 -8q-40 0 -79.5 7.5t-73 21.5t-56.5 35l26 52q26 -21 57 -33.5t64 -17.5t63 -5q65 0 103 21t38 57q0 33 -22 50.5t-72 26.5l-103 19q-69 12 -104.5 45t-35.5 89q0 43 24.5 75t69 50t105.5 18q35 0 72.5 -7.5t70 -21.5t51.5 -35l-27 -51q-21 20 -49.5 32t-59 17.5
t-59.5 5.5q-60 0 -95.5 -22t-35.5 -59q0 -32 20.5 -49.5t66.5 -26.5l101 -19q75 -14 111.5 -46t36.5 -88q0 -43 -25.5 -75t-72.5 -49t-110 -17zM250 559l104 194h81l-129 -194h-56z" />
    <glyph glyph-name="uni1E65" unicode="&#x1e65;" horiz-adv-x="551" 
d="M277 -8q-40 0 -79.5 7.5t-73 21.5t-56.5 35l26 52q26 -21 57 -33.5t64 -17.5t63 -5q65 0 103 21t38 57q0 33 -22 50.5t-72 26.5l-103 19q-69 12 -104.5 45t-35.5 89q0 43 24.5 75t69 50t105.5 18q35 0 72.5 -7.5t70 -21.5t51.5 -35l-27 -51q-21 20 -49.5 32t-59 17.5
t-59.5 5.5q-60 0 -95.5 -22t-35.5 -59q0 -32 20.5 -49.5t66.5 -26.5l101 -19q75 -14 111.5 -46t36.5 -88q0 -43 -25.5 -75t-72.5 -49t-110 -17zM251 559l105 195h81l-131 -195h-55zM196 759v71h82v-71h-82z" />
    <glyph glyph-name="scaron" unicode="&#x161;" horiz-adv-x="551" 
d="M277 -8q-40 0 -79.5 7.5t-73 21.5t-56.5 35l26 52q26 -21 57 -33.5t64 -17.5t63 -5q65 0 103 21t38 57q0 33 -22 50.5t-72 26.5l-103 19q-69 12 -104.5 45t-35.5 89q0 43 24.5 75t69 50t105.5 18q35 0 72.5 -7.5t70 -21.5t51.5 -35l-27 -51q-21 20 -49.5 32t-59 17.5
t-59.5 5.5q-60 0 -95.5 -22t-35.5 -59q0 -32 20.5 -49.5t66.5 -26.5l101 -19q75 -14 111.5 -46t36.5 -88q0 -43 -25.5 -75t-72.5 -49t-110 -17zM243 559l-111 194h55l92 -143l93 143h54l-111 -194h-72z" />
    <glyph glyph-name="uni1E67" unicode="&#x1e67;" horiz-adv-x="551" 
d="M277 -8q-40 0 -79.5 7.5t-73 21.5t-56.5 35l26 52q26 -21 57 -33.5t64 -17.5t63 -5q65 0 103 21t38 57q0 33 -22 50.5t-72 26.5l-103 19q-69 12 -104.5 45t-35.5 89q0 43 24.5 75t69 50t105.5 18q35 0 72.5 -7.5t70 -21.5t51.5 -35l-27 -51q-21 20 -49.5 32t-59 17.5
t-59.5 5.5q-60 0 -95.5 -22t-35.5 -59q0 -32 20.5 -49.5t66.5 -26.5l101 -19q75 -14 111.5 -46t36.5 -88q0 -43 -25.5 -75t-72.5 -49t-110 -17zM244 559l-110 159h54l91 -112l92 112h53l-110 -159h-70zM238 766v71h83v-71h-83z" />
    <glyph glyph-name="scedilla" unicode="&#x15f;" horiz-adv-x="551" 
d="M277 -8q-40 0 -79.5 7.5t-73 21.5t-56.5 35l26 52q26 -21 57 -33.5t64 -17.5t63 -5q65 0 103 21t38 57q0 33 -22 50.5t-72 26.5l-103 19q-69 12 -104.5 45t-35.5 89q0 43 24.5 75t69 50t105.5 18q35 0 72.5 -7.5t70 -21.5t51.5 -35l-27 -51q-21 20 -49.5 32t-59 17.5
t-59.5 5.5q-60 0 -95.5 -22t-35.5 -59q0 -32 20.5 -49.5t66.5 -26.5l101 -19q75 -14 111.5 -46t36.5 -88q0 -43 -25.5 -75t-72.5 -49t-110 -17zM280 -193q-24 0 -48.5 5t-39.5 14l12 43q19 -9 35.5 -13t41.5 -4q27 0 43.5 9t16.5 28q0 15 -10.5 22.5t-29.5 7.5
q-9 0 -21.5 -2t-28.5 -7l-17 15l15 95h48l-13 -77l-22 8q11 3 25 5t26 2q23 0 41.5 -7.5t30.5 -23t12 -38.5q0 -25 -15.5 -43.5t-41.5 -28.5t-60 -10z" />
    <glyph glyph-name="scircumflex" unicode="&#x15d;" horiz-adv-x="551" 
d="M277 -8q-40 0 -79.5 7.5t-73 21.5t-56.5 35l26 52q26 -21 57 -33.5t64 -17.5t63 -5q65 0 103 21t38 57q0 33 -22 50.5t-72 26.5l-103 19q-69 12 -104.5 45t-35.5 89q0 43 24.5 75t69 50t105.5 18q35 0 72.5 -7.5t70 -21.5t51.5 -35l-27 -51q-21 20 -49.5 32t-59 17.5
t-59.5 5.5q-60 0 -95.5 -22t-35.5 -59q0 -32 20.5 -49.5t66.5 -26.5l101 -19q75 -14 111.5 -46t36.5 -88q0 -43 -25.5 -75t-72.5 -49t-110 -17zM132 566l111 187h72l111 -187h-54l-93 136l-92 -136h-55z" />
    <glyph glyph-name="uni0219" unicode="&#x219;" horiz-adv-x="551" 
d="M277 -8q-40 0 -79.5 7.5t-73 21.5t-56.5 35l26 52q26 -21 57 -33.5t64 -17.5t63 -5q65 0 103 21t38 57q0 33 -22 50.5t-72 26.5l-103 19q-69 12 -104.5 45t-35.5 89q0 43 24.5 75t69 50t105.5 18q35 0 72.5 -7.5t70 -21.5t51.5 -35l-27 -51q-21 20 -49.5 32t-59 17.5
t-59.5 5.5q-60 0 -95.5 -22t-35.5 -59q0 -32 20.5 -49.5t66.5 -26.5l101 -19q75 -14 111.5 -46t36.5 -88q0 -43 -25.5 -75t-72.5 -49t-110 -17zM270 -284l-35 27q24 23 32.5 48t8.5 52l13 -10h-59v85h92v-66q0 -40 -12.5 -74t-39.5 -62z" />
    <glyph glyph-name="uni1E61" unicode="&#x1e61;" horiz-adv-x="551" 
d="M277 -8q-40 0 -79.5 7.5t-73 21.5t-56.5 35l26 52q26 -21 57 -33.5t64 -17.5t63 -5q65 0 103 21t38 57q0 33 -22 50.5t-72 26.5l-103 19q-69 12 -104.5 45t-35.5 89q0 43 24.5 75t69 50t105.5 18q35 0 72.5 -7.5t70 -21.5t51.5 -35l-27 -51q-21 20 -49.5 32t-59 17.5
t-59.5 5.5q-60 0 -95.5 -22t-35.5 -59q0 -32 20.5 -49.5t66.5 -26.5l101 -19q75 -14 111.5 -46t36.5 -88q0 -43 -25.5 -75t-72.5 -49t-110 -17zM237 622v83h84v-83h-84z" />
    <glyph glyph-name="uni1E63" unicode="&#x1e63;" horiz-adv-x="551" 
d="M277 -8q-40 0 -79.5 7.5t-73 21.5t-56.5 35l26 52q26 -21 57 -33.5t64 -17.5t63 -5q65 0 103 21t38 57q0 33 -22 50.5t-72 26.5l-103 19q-69 12 -104.5 45t-35.5 89q0 43 24.5 75t69 50t105.5 18q35 0 72.5 -7.5t70 -21.5t51.5 -35l-27 -51q-21 20 -49.5 32t-59 17.5
t-59.5 5.5q-60 0 -95.5 -22t-35.5 -59q0 -32 20.5 -49.5t66.5 -26.5l101 -19q75 -14 111.5 -46t36.5 -88q0 -43 -25.5 -75t-72.5 -49t-110 -17zM234 -184v83h84v-83h-84z" />
    <glyph glyph-name="uni1E69" unicode="&#x1e69;" horiz-adv-x="551" 
d="M277 -8q-40 0 -79.5 7.5t-73 21.5t-56.5 35l26 52q26 -21 57 -33.5t64 -17.5t63 -5q65 0 103 21t38 57q0 33 -22 50.5t-72 26.5l-103 19q-69 12 -104.5 45t-35.5 89q0 43 24.5 75t69 50t105.5 18q35 0 72.5 -7.5t70 -21.5t51.5 -35l-27 -51q-21 20 -49.5 32t-59 17.5
t-59.5 5.5q-60 0 -95.5 -22t-35.5 -59q0 -32 20.5 -49.5t66.5 -26.5l101 -19q75 -14 111.5 -46t36.5 -88q0 -43 -25.5 -75t-72.5 -49t-110 -17zM234 -184v83h84v-83h-84zM237 622v83h84v-83h-84z" />
    <glyph glyph-name="germandbls" unicode="&#xdf;" horiz-adv-x="653" 
d="M429 -8q-38 0 -76.5 7t-72 20t-57.5 33l24 55q40 -31 87.5 -43t90.5 -12q55 0 84.5 19.5t29.5 59.5q0 33 -23 52t-82 40q-46 16 -73 34.5t-39 40.5t-12 50q0 30 16.5 58.5t58.5 69.5q29 29 43 52t14 49q0 24 -16 40.5t-42.5 25t-57.5 8.5q-73 0 -115.5 -39.5
t-42.5 -119.5v-492h-70v487q0 70 28.5 120.5t80 77t119.5 26.5q53 0 94.5 -15.5t65.5 -44t24 -67.5q0 -25 -7.5 -46t-23.5 -42.5t-42 -46.5q-29 -29 -45.5 -51t-16.5 -42q0 -16 8 -29t27.5 -25t53.5 -25q76 -29 110 -61.5t34 -85.5q0 -40 -23 -71.5t-63.5 -49t-92.5 -17.5z
" />
    <glyph glyph-name="t" unicode="t" horiz-adv-x="422" 
d="M296 -8q-83 0 -127 45t-44 127v270h-102v60h104v149h68v-149h186v-60h-186v-261q0 -61 27 -90t82 -29q23 0 44 4.5t40 13.5l12 -57q-19 -12 -47.5 -17.5t-56.5 -5.5z" />
    <glyph glyph-name="tbar" unicode="&#x167;" horiz-adv-x="422" 
d="M296 -8q-83 0 -127 45t-44 127v270h-102v60h104v149h68v-149h186v-60h-186v-261q0 -61 27 -90t82 -29q23 0 44 4.5t40 13.5l12 -57q-19 -12 -47.5 -17.5t-56.5 -5.5zM44 253v54h273v-54h-273z" />
    <glyph glyph-name="tcaron" unicode="&#x165;" horiz-adv-x="422" 
d="M296 -8q-83 0 -127 45t-44 127v270h-102v60h104v149h68v-149h186v-60h-186v-261q0 -61 27 -90t82 -29q23 0 44 4.5t40 13.5l12 -57q-19 -12 -47.5 -17.5t-56.5 -5.5zM250 545v160h65l-22 -160h-43z" />
    <glyph glyph-name="uni0163" unicode="&#x163;" horiz-adv-x="422" 
d="M296 -8q-83 0 -127 45t-44 127v270h-102v60h104v149h68v-149h186v-60h-186v-261q0 -61 27 -90t82 -29q23 0 44 4.5t40 13.5l12 -57q-19 -12 -47.5 -17.5t-56.5 -5.5zM257 -201q-24 0 -48.5 5t-39.5 14l12 43q19 -9 35.5 -13t41.5 -4q27 0 43.5 9t16.5 28q0 15 -10.5 22.5
t-29.5 7.5q-9 0 -21.5 -2t-28.5 -7l-17 15l15 95h48l-13 -77l-22 8q11 3 25 5t26 2q23 0 41.5 -7.5t30.5 -23t12 -38.5q0 -25 -15.5 -43.5t-41.5 -28.5t-60 -10z" />
    <glyph glyph-name="uni021B" unicode="&#x21b;" horiz-adv-x="422" 
d="M296 -8q-83 0 -127 45t-44 127v270h-102v60h104v149h68v-149h186v-60h-186v-261q0 -61 27 -90t82 -29q23 0 44 4.5t40 13.5l12 -57q-19 -12 -47.5 -17.5t-56.5 -5.5zM247 -292l-35 27q24 23 32.5 48t8.5 52l13 -10h-59v85h92v-66q0 -40 -12.5 -74t-39.5 -62z" />
    <glyph glyph-name="uni1E97" unicode="&#x1e97;" horiz-adv-x="422" 
d="M296 -8q-83 0 -127 45t-44 127v270h-102v60h104v149h68v-149h186v-60h-186v-261q0 -61 27 -90t82 -29q23 0 44 4.5t40 13.5l12 -57q-19 -12 -47.5 -17.5t-56.5 -5.5zM209 753v80h82v-80h-82zM19 753v80h82v-80h-82z" />
    <glyph glyph-name="uni1E6D" unicode="&#x1e6d;" horiz-adv-x="422" 
d="M296 -8q-83 0 -127 45t-44 127v270h-102v60h104v149h68v-149h186v-60h-186v-261q0 -61 27 -90t82 -29q23 0 44 4.5t40 13.5l12 -57q-19 -12 -47.5 -17.5t-56.5 -5.5zM211 -192v83h84v-83h-84z" />
    <glyph glyph-name="uni1E6F" unicode="&#x1e6f;" horiz-adv-x="422" 
d="M296 -8q-83 0 -127 45t-44 127v270h-102v60h104v149h68v-149h186v-60h-186v-261q0 -61 27 -90t82 -29q23 0 44 4.5t40 13.5l12 -57q-19 -12 -47.5 -17.5t-56.5 -5.5zM96 -166v57h314v-57h-314z" />
    <glyph glyph-name="u" unicode="u" horiz-adv-x="624" 
d="M283 -8q-61 0 -103 21.5t-63 64.5t-21 106v310h70v-306q0 -38 12 -69t40 -48t74 -17q47 0 84.5 22.5t58.5 58.5t21 78v281h70v-494h-65v110h-2q-27 -55 -70 -86.5t-106 -31.5z" />
    <glyph glyph-name="uacute" unicode="&#xfa;" horiz-adv-x="624" 
d="M283 -8q-61 0 -103 21.5t-63 64.5t-21 106v310h70v-306q0 -38 12 -69t40 -48t74 -17q47 0 84.5 22.5t58.5 58.5t21 78v281h70v-494h-65v110h-2q-27 -55 -70 -86.5t-106 -31.5zM282 559l104 194h81l-129 -194h-56z" />
    <glyph glyph-name="ubreve" unicode="&#x16d;" horiz-adv-x="624" 
d="M283 -8q-61 0 -103 21.5t-63 64.5t-21 106v310h70v-306q0 -38 12 -69t40 -48t74 -17q47 0 84.5 22.5t58.5 58.5t21 78v281h70v-494h-65v110h-2q-27 -55 -70 -86.5t-106 -31.5zM311 556q-46 0 -79.5 23.5t-52 67t-21.5 101.5l51 6q4 -69 29 -105.5t73 -36.5
q47 0 72.5 36.5t29.5 105.5l51 -6q-2 -58 -21.5 -101.5t-52.5 -67t-79 -23.5z" />
    <glyph glyph-name="uni01D4" unicode="&#x1d4;" horiz-adv-x="624" 
d="M283 -8q-61 0 -103 21.5t-63 64.5t-21 106v310h70v-306q0 -38 12 -69t40 -48t74 -17q47 0 84.5 22.5t58.5 58.5t21 78v281h70v-494h-65v110h-2q-27 -55 -70 -86.5t-106 -31.5zM275 559l-111 194h55l92 -143l93 143h54l-111 -194h-72z" />
    <glyph glyph-name="ucircumflex" unicode="&#xfb;" horiz-adv-x="624" 
d="M283 -8q-61 0 -103 21.5t-63 64.5t-21 106v310h70v-306q0 -38 12 -69t40 -48t74 -17q47 0 84.5 22.5t58.5 58.5t21 78v281h70v-494h-65v110h-2q-27 -55 -70 -86.5t-106 -31.5zM164 566l111 187h72l111 -187h-54l-93 136l-92 -136h-55z" />
    <glyph glyph-name="uni0215" unicode="&#x215;" horiz-adv-x="624" 
d="M283 -8q-61 0 -103 21.5t-63 64.5t-21 106v310h70v-306q0 -38 12 -69t40 -48t74 -17q47 0 84.5 22.5t58.5 58.5t21 78v281h70v-494h-65v110h-2q-27 -55 -70 -86.5t-106 -31.5zM352 559l-82 194h70l55 -194h-43zM228 559l-82 194h70l54 -194h-42z" />
    <glyph glyph-name="udieresis" unicode="&#xfc;" horiz-adv-x="624" 
d="M283 -8q-61 0 -103 21.5t-63 64.5t-21 106v310h70v-306q0 -38 12 -69t40 -48t74 -17q47 0 84.5 22.5t58.5 58.5t21 78v281h70v-494h-65v110h-2q-27 -55 -70 -86.5t-106 -31.5zM365 621v82h82v-82h-82zM175 621v82h82v-82h-82z" />
    <glyph glyph-name="uni1EE5" unicode="&#x1ee5;" horiz-adv-x="624" 
d="M283 -8q-61 0 -103 21.5t-63 64.5t-21 106v310h70v-306q0 -38 12 -69t40 -48t74 -17q47 0 84.5 22.5t58.5 58.5t21 78v281h70v-494h-65v110h-2q-27 -55 -70 -86.5t-106 -31.5zM253 -184v83h84v-83h-84z" />
    <glyph glyph-name="ugrave" unicode="&#xf9;" horiz-adv-x="624" 
d="M283 -8q-61 0 -103 21.5t-63 64.5t-21 106v310h70v-306q0 -38 12 -69t40 -48t74 -17q47 0 84.5 22.5t58.5 58.5t21 78v281h70v-494h-65v110h-2q-27 -55 -70 -86.5t-106 -31.5zM284 560l-129 193h82l103 -193h-56z" />
    <glyph glyph-name="uni1EE7" unicode="&#x1ee7;" horiz-adv-x="624" 
d="M283 -8q-61 0 -103 21.5t-63 64.5t-21 106v310h70v-306q0 -38 12 -69t40 -48t74 -17q47 0 84.5 22.5t58.5 58.5t21 78v281h70v-494h-65v110h-2q-27 -55 -70 -86.5t-106 -31.5zM284 560v20q0 24 9.5 39t22.5 25.5t23 21.5t10 26q0 14 -12 21.5t-37 7.5q-15 0 -30.5 -4
t-33.5 -12l-13 43q18 11 41 16t51 5q46 0 72 -17.5t26 -50.5q0 -25 -11 -40.5t-26 -26t-26.5 -24t-11.5 -35.5v-15h-54z" />
    <glyph glyph-name="uhorn" unicode="&#x1b0;" horiz-adv-x="624" 
d="M283 -8q-61 0 -103 21.5t-63 64.5t-21 106v310h70v-306q0 -38 12 -69t40 -48t74 -17q47 0 84.5 22.5t58.5 58.5t21 78v281h70v-494h-65v110h-2q-27 -55 -70 -86.5t-106 -31.5zM501 446l-35 25v23q46 1 70 14t33 38.5t9 62.5v14h65v-25q0 -45 -16.5 -78t-48 -52t-77.5 -22
z" />
    <glyph glyph-name="uni1EE9" unicode="&#x1ee9;" horiz-adv-x="624" 
d="M283 -8q-61 0 -103 21.5t-63 64.5t-21 106v310h70v-306q0 -38 12 -69t40 -48t74 -17q47 0 84.5 22.5t58.5 58.5t21 78v281h70v-494h-65v110h-2q-27 -55 -70 -86.5t-106 -31.5zM501 446l-35 25v23q46 1 70 14t33 38.5t9 62.5v14h65v-25q0 -45 -16.5 -78t-48 -52t-77.5 -22
zM282 559l104 194h81l-129 -194h-56z" />
    <glyph glyph-name="uni1EF1" unicode="&#x1ef1;" horiz-adv-x="624" 
d="M283 -8q-61 0 -103 21.5t-63 64.5t-21 106v310h70v-306q0 -38 12 -69t40 -48t74 -17q47 0 84.5 22.5t58.5 58.5t21 78v281h70v-494h-65v110h-2q-27 -55 -70 -86.5t-106 -31.5zM501 446l-35 25v23q46 1 70 14t33 38.5t9 62.5v14h65v-25q0 -45 -16.5 -78t-48 -52t-77.5 -22
zM253 -184v83h84v-83h-84z" />
    <glyph glyph-name="uni1EEB" unicode="&#x1eeb;" horiz-adv-x="624" 
d="M283 -8q-61 0 -103 21.5t-63 64.5t-21 106v310h70v-306q0 -38 12 -69t40 -48t74 -17q47 0 84.5 22.5t58.5 58.5t21 78v281h70v-494h-65v110h-2q-27 -55 -70 -86.5t-106 -31.5zM501 446l-35 25v23q46 1 70 14t33 38.5t9 62.5v14h65v-25q0 -45 -16.5 -78t-48 -52t-77.5 -22
zM284 560l-129 193h82l103 -193h-56z" />
    <glyph glyph-name="uni1EED" unicode="&#x1eed;" horiz-adv-x="624" 
d="M283 -8q-61 0 -103 21.5t-63 64.5t-21 106v310h70v-306q0 -38 12 -69t40 -48t74 -17q47 0 84.5 22.5t58.5 58.5t21 78v281h70v-494h-65v110h-2q-27 -55 -70 -86.5t-106 -31.5zM501 446l-35 25v23q46 1 70 14t33 38.5t9 62.5v14h65v-25q0 -45 -16.5 -78t-48 -52t-77.5 -22
zM284 560v20q0 24 9.5 39t22.5 25.5t23 21.5t10 26q0 14 -12 21.5t-37 7.5q-15 0 -30.5 -4t-33.5 -12l-13 43q18 11 41 16t51 5q46 0 72 -17.5t26 -50.5q0 -25 -11 -40.5t-26 -26t-26.5 -24t-11.5 -35.5v-15h-54z" />
    <glyph glyph-name="uni1EEF" unicode="&#x1eef;" horiz-adv-x="624" 
d="M283 -8q-61 0 -103 21.5t-63 64.5t-21 106v310h70v-306q0 -38 12 -69t40 -48t74 -17q47 0 84.5 22.5t58.5 58.5t21 78v281h70v-494h-65v110h-2q-27 -55 -70 -86.5t-106 -31.5zM501 446l-35 25v23q46 1 70 14t33 38.5t9 62.5v14h65v-25q0 -45 -16.5 -78t-48 -52t-77.5 -22
zM183 602l-48 2q6 64 32 97.5t69 33.5q26 0 46 -13t39 -31q15 -14 29 -24t30 -10q24 0 38.5 20.5t20.5 60.5l47 -3q-6 -64 -32 -97.5t-68 -33.5q-27 0 -47 14t-38 30q-16 15 -29.5 25t-29.5 10q-26 0 -40 -22t-19 -59z" />
    <glyph glyph-name="uhungarumlaut" unicode="&#x171;" horiz-adv-x="624" 
d="M283 -8q-61 0 -103 21.5t-63 64.5t-21 106v310h70v-306q0 -38 12 -69t40 -48t74 -17q47 0 84.5 22.5t58.5 58.5t21 78v281h70v-494h-65v110h-2q-27 -55 -70 -86.5t-106 -31.5zM352 560l54 193h70l-82 -193h-42zM227 560l55 193h70l-82 -193h-43z" />
    <glyph glyph-name="uni0217" unicode="&#x217;" horiz-adv-x="624" 
d="M283 -8q-61 0 -103 21.5t-63 64.5t-21 106v310h70v-306q0 -38 12 -69t40 -48t74 -17q47 0 84.5 22.5t58.5 58.5t21 78v281h70v-494h-65v110h-2q-27 -55 -70 -86.5t-106 -31.5zM209 556l-51 6q3 59 21.5 102t52.5 66.5t79 23.5q46 0 79.5 -23.5t52.5 -66.5t21 -102l-51 -6
q-4 69 -29 105.5t-73 36.5q-47 0 -72.5 -36.5t-29.5 -105.5z" />
    <glyph glyph-name="umacron" unicode="&#x16b;" horiz-adv-x="624" 
d="M283 -8q-61 0 -103 21.5t-63 64.5t-21 106v310h70v-306q0 -38 12 -69t40 -48t74 -17q47 0 84.5 22.5t58.5 58.5t21 78v281h70v-494h-65v110h-2q-27 -55 -70 -86.5t-106 -31.5zM154 636v56h314v-56h-314z" />
    <glyph glyph-name="uni1E7B" unicode="&#x1e7b;" horiz-adv-x="624" 
d="M283 -8q-61 0 -103 21.5t-63 64.5t-21 106v310h70v-306q0 -38 12 -69t40 -48t74 -17q47 0 84.5 22.5t58.5 58.5t21 78v281h70v-494h-65v110h-2q-27 -55 -70 -86.5t-106 -31.5zM154 593v56h314v-56h-314zM176 704v74h83v-74h-83zM363 704v74h83v-74h-83z" />
    <glyph glyph-name="uogonek" unicode="&#x173;" horiz-adv-x="624" 
d="M283 -8q-61 0 -103 21.5t-63 64.5t-21 106v310h70v-306q0 -38 12 -69t40 -48t74 -17q47 0 84.5 22.5t58.5 58.5t21 78v281h70v-494h-65v110h-2q-27 -55 -70 -86.5t-106 -31.5zM498 -194q-46 0 -76 26t-30 69q0 39 27 75t71 59l28 -35q-15 -7 -31 -19.5t-26.5 -30.5
t-10.5 -39q0 -29 16.5 -41t39.5 -12q12 0 25.5 3t26.5 9l17 -47q-13 -7 -32.5 -12t-44.5 -5z" />
    <glyph glyph-name="uring" unicode="&#x16f;" horiz-adv-x="624" 
d="M283 -8q-61 0 -103 21.5t-63 64.5t-21 106v310h70v-306q0 -38 12 -69t40 -48t74 -17q47 0 84.5 22.5t58.5 58.5t21 78v281h70v-494h-65v110h-2q-27 -55 -70 -86.5t-106 -31.5zM311 555q-35 0 -62 15.5t-43 42t-16 58.5q0 33 16 59t43 41.5t62 15.5t62 -15.5t43 -41.5
t16 -59q0 -32 -16 -58.5t-43 -42t-62 -15.5zM311 598q32 0 53 21t21 52q0 32 -21 53t-53 21t-53 -21t-21 -53q0 -31 21 -52t53 -21z" />
    <glyph glyph-name="utilde" unicode="&#x169;" horiz-adv-x="624" 
d="M283 -8q-61 0 -103 21.5t-63 64.5t-21 106v310h70v-306q0 -38 12 -69t40 -48t74 -17q47 0 84.5 22.5t58.5 58.5t21 78v281h70v-494h-65v110h-2q-27 -55 -70 -86.5t-106 -31.5zM180 599l-46 3q5 62 32.5 96.5t70.5 34.5q26 0 46.5 -13.5t39.5 -30.5q16 -14 30 -24t29 -10
q26 0 40 20.5t20 59.5l46 -3q-5 -62 -32.5 -96.5t-69.5 -34.5q-27 0 -47.5 14t-39.5 30q-16 15 -30 24t-29 9q-26 0 -40 -20t-20 -59z" />
    <glyph glyph-name="uni1E79" unicode="&#x1e79;" horiz-adv-x="624" 
d="M283 -8q-61 0 -103 21.5t-63 64.5t-21 106v310h70v-306q0 -38 12 -69t40 -48t74 -17q47 0 84.5 22.5t58.5 58.5t21 78v281h70v-494h-65v110h-2q-27 -55 -70 -86.5t-106 -31.5zM198 554l-46 2q3 34 14.5 57.5t31.5 35t47 11.5q23 0 41 -9.5t36 -21.5q15 -10 28 -17t25 -7
q23 0 34 14t15 42l47 -2q-4 -51 -29 -77t-65 -26q-22 0 -40 9t-36 21q-14 10 -27 17t-27 7q-22 0 -33 -14t-16 -42zM284 679l91 146h81l-118 -146h-54z" />
    <glyph glyph-name="v" unicode="v" horiz-adv-x="550" 
d="M239 0l-207 494h76l167 -419h1l169 419h73l-207 -494h-72z" />
    <glyph glyph-name="w" unicode="w" horiz-adv-x="864" 
d="M205 0l-167 494h71l137 -417h-1l154 417h67l152 -417h-1l139 417h71l-170 -494h-71l-155 421h2l-156 -421h-72z" />
    <glyph glyph-name="wacute" unicode="&#x1e83;" horiz-adv-x="864" 
d="M205 0l-167 494h71l137 -417h-1l154 417h67l152 -417h-1l139 417h71l-170 -494h-71l-155 421h2l-156 -421h-72zM404 559l104 194h81l-129 -194h-56z" />
    <glyph glyph-name="wcircumflex" unicode="&#x175;" horiz-adv-x="864" 
d="M205 0l-167 494h71l137 -417h-1l154 417h67l152 -417h-1l139 417h71l-170 -494h-71l-155 421h2l-156 -421h-72zM286 566l111 187h72l111 -187h-54l-93 136l-92 -136h-55z" />
    <glyph glyph-name="wdieresis" unicode="&#x1e85;" horiz-adv-x="864" 
d="M205 0l-167 494h71l137 -417h-1l154 417h67l152 -417h-1l139 417h71l-170 -494h-71l-155 421h2l-156 -421h-72zM487 621v82h82v-82h-82zM297 621v82h82v-82h-82z" />
    <glyph glyph-name="wgrave" unicode="&#x1e81;" horiz-adv-x="864" 
d="M205 0l-167 494h71l137 -417h-1l154 417h67l152 -417h-1l139 417h71l-170 -494h-71l-155 421h2l-156 -421h-72zM406 560l-129 193h82l103 -193h-56z" />
    <glyph glyph-name="x" unicode="x" horiz-adv-x="543" 
d="M35 0l203 273v-38l-193 259h81l145 -197v0l145 197h81l-192 -256l1 31l202 -269h-82l-155 209v0l-155 -209h-81z" />
    <glyph glyph-name="y" unicode="y" horiz-adv-x="550" 
d="M163 -180l88 205v-53l-219 522h76l168 -420v0l169 420h74l-282 -674h-74z" />
    <glyph glyph-name="yacute" unicode="&#xfd;" horiz-adv-x="550" 
d="M163 -180l88 205v-53l-219 522h76l168 -420v0l169 420h74l-282 -674h-74zM245 559l104 194h81l-129 -194h-56z" />
    <glyph glyph-name="ycircumflex" unicode="&#x177;" horiz-adv-x="550" 
d="M163 -180l88 205v-53l-219 522h76l168 -420v0l169 420h74l-282 -674h-74zM127 566l111 187h72l111 -187h-54l-93 136l-92 -136h-55z" />
    <glyph glyph-name="ydieresis" unicode="&#xff;" horiz-adv-x="550" 
d="M163 -180l88 205v-53l-219 522h76l168 -420v0l169 420h74l-282 -674h-74zM328 621v82h82v-82h-82zM138 621v82h82v-82h-82z" />
    <glyph glyph-name="uni1E8F" unicode="&#x1e8f;" horiz-adv-x="550" 
d="M163 -180l88 205v-53l-219 522h76l168 -420v0l169 420h74l-282 -674h-74zM232 622v83h84v-83h-84z" />
    <glyph glyph-name="uni1EF5" unicode="&#x1ef5;" horiz-adv-x="550" 
d="M163 -180l88 205v-53l-219 522h76l168 -420v0l169 420h74l-282 -674h-74zM351 -184v83h84v-83h-84z" />
    <glyph glyph-name="ygrave" unicode="&#x1ef3;" horiz-adv-x="550" 
d="M163 -180l88 205v-53l-219 522h76l168 -420v0l169 420h74l-282 -674h-74zM247 560l-129 193h82l103 -193h-56z" />
    <glyph glyph-name="uni01B4" unicode="&#x1b4;" horiz-adv-x="581" 
d="M409 403q14 35 33 56.5t45 32.5t59 11q18 0 30.5 -2t25.5 -6l-12 -59q-9 3 -19 4.5t-19 1.5q-21 0 -36 -7t-27 -22.5t-24 -44.5l-228 -548h-74l88 205v-53l-219 522h76l168 -420v0z" />
    <glyph glyph-name="uni1EF7" unicode="&#x1ef7;" horiz-adv-x="550" 
d="M163 -180l88 205v-53l-219 522h76l168 -420v0l169 420h74l-282 -674h-74zM247 560v20q0 24 9.5 39t22.5 25.5t23 21.5t10 26q0 14 -12 21.5t-37 7.5q-15 0 -30.5 -4t-33.5 -12l-13 43q18 11 41 16t51 5q46 0 72 -17.5t26 -50.5q0 -25 -11 -40.5t-26 -26t-26.5 -24
t-11.5 -35.5v-15h-54z" />
    <glyph glyph-name="uni0233" unicode="&#x233;" horiz-adv-x="550" 
d="M163 -180l88 205v-53l-219 522h76l168 -420v0l169 420h74l-282 -674h-74zM117 636v56h314v-56h-314z" />
    <glyph glyph-name="uni1EF9" unicode="&#x1ef9;" horiz-adv-x="550" 
d="M163 -180l88 205v-53l-219 522h76l168 -420v0l169 420h74l-282 -674h-74zM143 599l-46 3q5 62 32.5 96.5t70.5 34.5q26 0 46.5 -13.5t39.5 -30.5q16 -14 30 -24t29 -10q26 0 40 20.5t20 59.5l46 -3q-5 -62 -32.5 -96.5t-69.5 -34.5q-27 0 -47.5 14t-39.5 30
q-16 15 -30 24t-29 9q-26 0 -40 -20t-20 -59z" />
    <glyph glyph-name="z" unicode="z" horiz-adv-x="528" 
d="M62 0v43l329 415l7 -25h-325v61h390v-45l-330 -417l-7 29h349v-61h-413z" />
    <glyph glyph-name="zacute" unicode="&#x17a;" horiz-adv-x="528" 
d="M62 0v43l329 415l7 -25h-325v61h390v-45l-330 -417l-7 29h349v-61h-413zM242 559l104 194h81l-129 -194h-56z" />
    <glyph glyph-name="zcaron" unicode="&#x17e;" horiz-adv-x="528" 
d="M62 0v43l329 415l7 -25h-325v61h390v-45l-330 -417l-7 29h349v-61h-413zM235 559l-111 194h55l92 -143l93 143h54l-111 -194h-72z" />
    <glyph glyph-name="zdotaccent" unicode="&#x17c;" horiz-adv-x="528" 
d="M62 0v43l329 415l7 -25h-325v61h390v-45l-330 -417l-7 29h349v-61h-413zM229 622v83h84v-83h-84z" />
    <glyph glyph-name="uni1E93" unicode="&#x1e93;" horiz-adv-x="528" 
d="M62 0v43l329 415l7 -25h-325v61h390v-45l-330 -417l-7 29h349v-61h-413zM227 -184v83h84v-83h-84z" />
    <glyph glyph-name="germandbls.calt" horiz-adv-x="764" 
d="M450 -8q-58 0 -105 16t-89 49l26 58q44 -33 80.5 -46t85.5 -13q76 0 118.5 35.5t42.5 102.5t-44.5 99.5t-128.5 32.5h-132v61h105q43 0 78 15.5t56.5 45.5t21.5 75q0 64 -45 95t-128 31q-106 0 -158 -45t-52 -148v-456h-69v461q0 83 32.5 139.5t94.5 84.5t152 28
q76 0 130.5 -22.5t84 -64t29.5 -98.5q0 -38 -13.5 -70.5t-36.5 -56t-54 -36.5v-1q65 -11 106 -56t41 -115q0 -60 -26.5 -105.5t-78 -70.5t-124.5 -25z" />
    <glyph glyph-name="iacute_j.loclNLD" horiz-adv-x="508" 
d="M98 0v494h70v-494h-70zM103 559l104 194h81l-129 -194h-56zM209 -193l-5 61l49 6q48 5 74 30.5t26 80.5v509h70v-507q0 -41 -10.5 -71.5t-30.5 -52t-50 -34t-71 -17.5zM359 559l104 194h81l-129 -194h-56z" />
    <glyph glyph-name="a.ss01" horiz-adv-x="644" 
d="M296 -8q-69 0 -120.5 31.5t-80 89.5t-28.5 134q0 77 28.5 134.5t79.5 89.5t120 32q64 0 112 -31t69 -85h3v107h68v-494h-65v110h-3q-23 -56 -70.5 -87t-112.5 -31zM307 52q79 0 124.5 53t45.5 142t-45 142t-124 53t-125 -53t-46 -142t45.5 -142t124.5 -53z" />
    <glyph glyph-name="aacute.ss01" horiz-adv-x="644" 
d="M296 -8q-69 0 -120.5 31.5t-80 89.5t-28.5 134q0 77 28.5 134.5t79.5 89.5t120 32q64 0 112 -31t69 -85h3v107h68v-494h-65v110h-3q-23 -56 -70.5 -87t-112.5 -31zM307 52q79 0 124.5 53t45.5 142t-45 142t-124 53t-125 -53t-46 -142t45.5 -142t124.5 -53zM273 559
l104 194h81l-129 -194h-56z" />
    <glyph glyph-name="abreve.ss01" horiz-adv-x="644" 
d="M296 -8q-69 0 -120.5 31.5t-80 89.5t-28.5 134q0 77 28.5 134.5t79.5 89.5t120 32q64 0 112 -31t69 -85h3v107h68v-494h-65v110h-3q-23 -56 -70.5 -87t-112.5 -31zM307 52q79 0 124.5 53t45.5 142t-45 142t-124 53t-125 -53t-46 -142t45.5 -142t124.5 -53zM302 556
q-46 0 -79.5 23.5t-52 67t-21.5 101.5l51 6q4 -69 29 -105.5t73 -36.5q47 0 72.5 36.5t29.5 105.5l51 -6q-2 -58 -21.5 -101.5t-52.5 -67t-79 -23.5z" />
    <glyph glyph-name="uni1EAF.ss01" horiz-adv-x="644" 
d="M296 -8q-69 0 -120.5 31.5t-80 89.5t-28.5 134q0 77 28.5 134.5t79.5 89.5t120 32q64 0 112 -31t69 -85h3v107h68v-494h-65v110h-3q-23 -56 -70.5 -87t-112.5 -31zM307 52q79 0 124.5 53t45.5 142t-45 142t-124 53t-125 -53t-46 -142t45.5 -142t124.5 -53zM302 556
q-68 0 -110 41t-47 111l49 5q5 -51 33.5 -78t74.5 -27q47 0 75.5 26.5t33.5 78.5l49 -5q-5 -70 -47 -111t-111 -41zM269 674l90 144h79l-116 -144h-53z" />
    <glyph glyph-name="uni1EB7.ss01" horiz-adv-x="644" 
d="M296 -8q-69 0 -120.5 31.5t-80 89.5t-28.5 134q0 77 28.5 134.5t79.5 89.5t120 32q64 0 112 -31t69 -85h3v107h68v-494h-65v110h-3q-23 -56 -70.5 -87t-112.5 -31zM307 52q79 0 124.5 53t45.5 142t-45 142t-124 53t-125 -53t-46 -142t45.5 -142t124.5 -53zM256 -184v83
h84v-83h-84zM302 556q-46 0 -79.5 23.5t-52 67t-21.5 101.5l51 6q4 -69 29 -105.5t73 -36.5q47 0 72.5 36.5t29.5 105.5l51 -6q-2 -58 -21.5 -101.5t-52.5 -67t-79 -23.5z" />
    <glyph glyph-name="uni1EB1.ss01" horiz-adv-x="644" 
d="M296 -8q-69 0 -120.5 31.5t-80 89.5t-28.5 134q0 77 28.5 134.5t79.5 89.5t120 32q64 0 112 -31t69 -85h3v107h68v-494h-65v110h-3q-23 -56 -70.5 -87t-112.5 -31zM307 52q79 0 124.5 53t45.5 142t-45 142t-124 53t-125 -53t-46 -142t45.5 -142t124.5 -53zM302 556
q-68 0 -110 41t-47 111l49 5q5 -51 33.5 -78t74.5 -27q47 0 75.5 26.5t33.5 78.5l49 -5q-5 -70 -47 -111t-111 -41zM283 674l-112 144h80l86 -144h-54z" />
    <glyph glyph-name="uni1EB3.ss01" horiz-adv-x="644" 
d="M296 -8q-69 0 -120.5 31.5t-80 89.5t-28.5 134q0 77 28.5 134.5t79.5 89.5t120 32q64 0 112 -31t69 -85h3v107h68v-494h-65v110h-3q-23 -56 -70.5 -87t-112.5 -31zM307 52q79 0 124.5 53t45.5 142t-45 142t-124 53t-125 -53t-46 -142t45.5 -142t124.5 -53zM302 556
q-68 0 -110 41t-47 111l49 5q5 -51 33.5 -78t74.5 -27q47 0 75.5 26.5t33.5 78.5l49 -5q-5 -69 -47 -110.5t-111 -41.5zM276 674q0 22 9.5 35t22 22t22 16.5t9.5 17.5q0 13 -13.5 17t-35.5 4q-11 0 -26.5 -2.5t-34.5 -9.5l-12 39q17 9 38.5 13t50.5 4q45 0 68.5 -14.5
t23.5 -38.5q0 -20 -10.5 -32t-24.5 -21.5t-24.5 -20.5t-10.5 -29h-52z" />
    <glyph glyph-name="uni1EB5.ss01" horiz-adv-x="644" 
d="M296 -8q-69 0 -120.5 31.5t-80 89.5t-28.5 134q0 77 28.5 134.5t79.5 89.5t120 32q64 0 112 -31t69 -85h3v107h68v-494h-65v110h-3q-23 -56 -70.5 -87t-112.5 -31zM307 52q79 0 124.5 53t45.5 142t-45 142t-124 53t-125 -53t-46 -142t45.5 -142t124.5 -53zM302 556
q-61 0 -103 31.5t-54 84.5l48 8q10 -34 39 -53t70 -19q42 0 70.5 19t38.5 53l49 -8q-12 -52 -54 -84t-104 -32zM189 723l-46 2q3 35 14.5 57.5t31.5 34.5t47 12q23 0 41 -9.5t36 -21.5q15 -10 28 -17t25 -7q23 0 34 14t15 42l47 -2q-4 -51 -29 -77.5t-65 -26.5
q-22 0 -40 9.5t-36 21.5q-14 10 -27 17t-27 7q-22 0 -33 -13.5t-16 -42.5z" />
    <glyph glyph-name="uni01CE.ss01" horiz-adv-x="644" 
d="M296 -8q-69 0 -120.5 31.5t-80 89.5t-28.5 134q0 77 28.5 134.5t79.5 89.5t120 32q64 0 112 -31t69 -85h3v107h68v-494h-65v110h-3q-23 -56 -70.5 -87t-112.5 -31zM307 52q79 0 124.5 53t45.5 142t-45 142t-124 53t-125 -53t-46 -142t45.5 -142t124.5 -53zM266 559
l-111 194h55l92 -143l93 143h54l-111 -194h-72z" />
    <glyph glyph-name="acircumflex.ss01" horiz-adv-x="644" 
d="M296 -8q-69 0 -120.5 31.5t-80 89.5t-28.5 134q0 77 28.5 134.5t79.5 89.5t120 32q64 0 112 -31t69 -85h3v107h68v-494h-65v110h-3q-23 -56 -70.5 -87t-112.5 -31zM307 52q79 0 124.5 53t45.5 142t-45 142t-124 53t-125 -53t-46 -142t45.5 -142t124.5 -53zM155 566
l111 187h72l111 -187h-54l-93 136l-92 -136h-55z" />
    <glyph glyph-name="uni1EA5.ss01" horiz-adv-x="644" 
d="M296 -8q-69 0 -120.5 31.5t-80 89.5t-28.5 134q0 77 28.5 134.5t79.5 89.5t120 32q64 0 112 -31t69 -85h3v107h68v-494h-65v110h-3q-23 -56 -70.5 -87t-112.5 -31zM307 52q79 0 124.5 53t45.5 142t-45 142t-124 53t-125 -53t-46 -142t45.5 -142t124.5 -53zM152 567
l115 166h70l115 -166h-55l-95 115l-96 -115h-54zM396 676l82 150h75l-107 -150h-50z" />
    <glyph glyph-name="uni1EAD.ss01" horiz-adv-x="644" 
d="M296 -8q-69 0 -120.5 31.5t-80 89.5t-28.5 134q0 77 28.5 134.5t79.5 89.5t120 32q64 0 112 -31t69 -85h3v107h68v-494h-65v110h-3q-23 -56 -70.5 -87t-112.5 -31zM307 52q79 0 124.5 53t45.5 142t-45 142t-124 53t-125 -53t-46 -142t45.5 -142t124.5 -53zM256 -184v83
h84v-83h-84zM155 566l111 187h72l111 -187h-54l-93 136l-92 -136h-55z" />
    <glyph glyph-name="uni1EA7.ss01" horiz-adv-x="644" 
d="M296 -8q-69 0 -120.5 31.5t-80 89.5t-28.5 134q0 77 28.5 134.5t79.5 89.5t120 32q64 0 112 -31t69 -85h3v107h68v-494h-65v110h-3q-23 -56 -70.5 -87t-112.5 -31zM307 52q79 0 124.5 53t45.5 142t-45 142t-124 53t-125 -53t-46 -142t45.5 -142t124.5 -53zM152 567
l115 166h70l115 -166h-55l-95 115l-96 -115h-54zM438 676l-107 150h74l83 -150h-50z" />
    <glyph glyph-name="uni1EA9.ss01" horiz-adv-x="644" 
d="M296 -8q-69 0 -120.5 31.5t-80 89.5t-28.5 134q0 77 28.5 134.5t79.5 89.5t120 32q64 0 112 -31t69 -85h3v107h68v-494h-65v110h-3q-23 -56 -70.5 -87t-112.5 -31zM307 52q79 0 124.5 53t45.5 142t-45 142t-124 53t-125 -53t-46 -142t45.5 -142t124.5 -53zM152 567
l115 166h70l115 -166h-55l-95 115l-96 -115h-54zM403 679q0 22 9.5 34.5t22 21.5t22 16.5t9.5 17.5q0 13 -13.5 17t-34.5 4q-12 0 -27.5 -2.5t-33.5 -9.5l-12 38q17 9 38 13t50 4q44 0 67.5 -14.5t23.5 -37.5q0 -20 -10.5 -32t-24.5 -21t-24.5 -20t-10.5 -29h-51z" />
    <glyph glyph-name="uni1EAB.ss01" horiz-adv-x="644" 
d="M296 -8q-69 0 -120.5 31.5t-80 89.5t-28.5 134q0 77 28.5 134.5t79.5 89.5t120 32q64 0 112 -31t69 -85h3v107h68v-494h-65v110h-3q-23 -56 -70.5 -87t-112.5 -31zM307 52q79 0 124.5 53t45.5 142t-45 142t-124 53t-125 -53t-46 -142t45.5 -142t124.5 -53zM152 567
l115 137h70l115 -137h-55l-95 91l-96 -91h-54zM189 729l-46 3q3 34 14 57t31 35t48 12q23 0 41 -9t36 -21q15 -10 28 -17t25 -7q22 0 33.5 12.5t15.5 43.5l47 -4q-4 -49 -28 -76t-66 -27q-22 0 -40 9.5t-36 21.5q-14 9 -27 16t-27 7q-20 0 -32 -12t-17 -44z" />
    <glyph glyph-name="uni0201.ss01" horiz-adv-x="644" 
d="M296 -8q-69 0 -120.5 31.5t-80 89.5t-28.5 134q0 77 28.5 134.5t79.5 89.5t120 32q64 0 112 -31t69 -85h3v107h68v-494h-65v110h-3q-23 -56 -70.5 -87t-112.5 -31zM307 52q79 0 124.5 53t45.5 142t-45 142t-124 53t-125 -53t-46 -142t45.5 -142t124.5 -53zM343 559
l-82 194h70l55 -194h-43zM219 559l-82 194h70l54 -194h-42z" />
    <glyph glyph-name="adieresis.ss01" horiz-adv-x="644" 
d="M296 -8q-69 0 -120.5 31.5t-80 89.5t-28.5 134q0 77 28.5 134.5t79.5 89.5t120 32q64 0 112 -31t69 -85h3v107h68v-494h-65v110h-3q-23 -56 -70.5 -87t-112.5 -31zM307 52q79 0 124.5 53t45.5 142t-45 142t-124 53t-125 -53t-46 -142t45.5 -142t124.5 -53zM356 621v82h82
v-82h-82zM166 621v82h82v-82h-82z" />
    <glyph glyph-name="uni0227.ss01" horiz-adv-x="644" 
d="M296 -8q-69 0 -120.5 31.5t-80 89.5t-28.5 134q0 77 28.5 134.5t79.5 89.5t120 32q64 0 112 -31t69 -85h3v107h68v-494h-65v110h-3q-23 -56 -70.5 -87t-112.5 -31zM307 52q79 0 124.5 53t45.5 142t-45 142t-124 53t-125 -53t-46 -142t45.5 -142t124.5 -53zM260 622v83h84
v-83h-84z" />
    <glyph glyph-name="uni1EA1.ss01" horiz-adv-x="644" 
d="M296 -8q-69 0 -120.5 31.5t-80 89.5t-28.5 134q0 77 28.5 134.5t79.5 89.5t120 32q64 0 112 -31t69 -85h3v107h68v-494h-65v110h-3q-23 -56 -70.5 -87t-112.5 -31zM307 52q79 0 124.5 53t45.5 142t-45 142t-124 53t-125 -53t-46 -142t45.5 -142t124.5 -53zM256 -184v83
h84v-83h-84z" />
    <glyph glyph-name="agrave.ss01" horiz-adv-x="644" 
d="M296 -8q-69 0 -120.5 31.5t-80 89.5t-28.5 134q0 77 28.5 134.5t79.5 89.5t120 32q64 0 112 -31t69 -85h3v107h68v-494h-65v110h-3q-23 -56 -70.5 -87t-112.5 -31zM307 52q79 0 124.5 53t45.5 142t-45 142t-124 53t-125 -53t-46 -142t45.5 -142t124.5 -53zM275 560
l-129 193h82l103 -193h-56z" />
    <glyph glyph-name="uni1EA3.ss01" horiz-adv-x="644" 
d="M296 -8q-69 0 -120.5 31.5t-80 89.5t-28.5 134q0 77 28.5 134.5t79.5 89.5t120 32q64 0 112 -31t69 -85h3v107h68v-494h-65v110h-3q-23 -56 -70.5 -87t-112.5 -31zM307 52q79 0 124.5 53t45.5 142t-45 142t-124 53t-125 -53t-46 -142t45.5 -142t124.5 -53zM275 560v20
q0 24 9.5 39t22.5 25.5t23 21.5t10 26q0 14 -12 21.5t-37 7.5q-15 0 -30.5 -4t-33.5 -12l-13 43q18 11 41 16t51 5q46 0 72 -17.5t26 -50.5q0 -25 -11 -40.5t-26 -26t-26.5 -24t-11.5 -35.5v-15h-54z" />
    <glyph glyph-name="uni0203.ss01" horiz-adv-x="644" 
d="M296 -8q-69 0 -120.5 31.5t-80 89.5t-28.5 134q0 77 28.5 134.5t79.5 89.5t120 32q64 0 112 -31t69 -85h3v107h68v-494h-65v110h-3q-23 -56 -70.5 -87t-112.5 -31zM307 52q79 0 124.5 53t45.5 142t-45 142t-124 53t-125 -53t-46 -142t45.5 -142t124.5 -53zM200 556l-51 6
q3 59 21.5 102t52.5 66.5t79 23.5q46 0 79.5 -23.5t52.5 -66.5t21 -102l-51 -6q-4 69 -29 105.5t-73 36.5q-47 0 -72.5 -36.5t-29.5 -105.5z" />
    <glyph glyph-name="amacron.ss01" horiz-adv-x="644" 
d="M296 -8q-69 0 -120.5 31.5t-80 89.5t-28.5 134q0 77 28.5 134.5t79.5 89.5t120 32q64 0 112 -31t69 -85h3v107h68v-494h-65v110h-3q-23 -56 -70.5 -87t-112.5 -31zM307 52q79 0 124.5 53t45.5 142t-45 142t-124 53t-125 -53t-46 -142t45.5 -142t124.5 -53zM145 636v56
h314v-56h-314z" />
    <glyph glyph-name="aogonek.ss01" horiz-adv-x="644" 
d="M296 -8q-69 0 -120.5 31.5t-80 89.5t-28.5 134q0 77 28.5 134.5t79.5 89.5t120 32q64 0 112 -31t69 -85h3v107h68v-494h-65v110h-3q-23 -56 -70.5 -87t-112.5 -31zM307 52q79 0 124.5 53t45.5 142t-45 142t-124 53t-125 -53t-46 -142t45.5 -142t124.5 -53zM520 -194
q-46 0 -76 26t-30 69q0 39 27 75t71 59l28 -35q-15 -7 -31 -19.5t-26.5 -30.5t-10.5 -39q0 -29 16.5 -41t39.5 -12q12 0 25.5 3t26.5 9l17 -47q-13 -7 -32.5 -12t-44.5 -5z" />
    <glyph glyph-name="aring.ss01" horiz-adv-x="644" 
d="M296 -8q-69 0 -120.5 31.5t-80 89.5t-28.5 134q0 77 28.5 134.5t79.5 89.5t120 32q64 0 112 -31t69 -85h3v107h68v-494h-65v110h-3q-23 -56 -70.5 -87t-112.5 -31zM307 52q79 0 124.5 53t45.5 142t-45 142t-124 53t-125 -53t-46 -142t45.5 -142t124.5 -53zM302 555
q-35 0 -62 15.5t-43 42t-16 58.5q0 33 16 59t43 41.5t62 15.5t62 -15.5t43 -41.5t16 -59q0 -32 -16 -58.5t-43 -42t-62 -15.5zM302 598q32 0 53 21t21 52q0 32 -21 53t-53 21t-53 -21t-21 -53q0 -31 21 -52t53 -21z" />
    <glyph glyph-name="aringacute.ss01" horiz-adv-x="644" 
d="M296 -8q-69 0 -120.5 31.5t-80 89.5t-28.5 134q0 77 28.5 134.5t79.5 89.5t120 32q64 0 112 -31t69 -85h3v107h68v-494h-65v110h-3q-23 -56 -70.5 -87t-112.5 -31zM307 52q79 0 124.5 53t45.5 142t-45 142t-124 53t-125 -53t-46 -142t45.5 -142t124.5 -53zM302 555
q-35 0 -62 15.5t-43 41.5t-16 59q0 32 16 58t43 41.5t62 15.5q22 0 40 -6t33 -17l66 62h79l-112 -97q7 -13 11 -27t4 -30q0 -33 -16 -59t-43 -41.5t-62 -15.5zM302 598q32 0 53 20.5t21 52.5t-21 52.5t-53 20.5t-53 -20.5t-21 -52.5t21 -52.5t53 -20.5z" />
    <glyph glyph-name="atilde.ss01" horiz-adv-x="644" 
d="M296 -8q-69 0 -120.5 31.5t-80 89.5t-28.5 134q0 77 28.5 134.5t79.5 89.5t120 32q64 0 112 -31t69 -85h3v107h68v-494h-65v110h-3q-23 -56 -70.5 -87t-112.5 -31zM307 52q79 0 124.5 53t45.5 142t-45 142t-124 53t-125 -53t-46 -142t45.5 -142t124.5 -53zM171 599l-46 3
q5 62 32.5 96.5t70.5 34.5q26 0 46.5 -13.5t39.5 -30.5q16 -14 30 -24t29 -10q26 0 40 20.5t20 59.5l46 -3q-5 -62 -32.5 -96.5t-69.5 -34.5q-27 0 -47.5 14t-39.5 30q-16 15 -30 24t-29 9q-26 0 -40 -20t-20 -59z" />
    <glyph glyph-name="l.ss02" horiz-adv-x="265" 
d="M98 0v705h70v-705h-70z" />
    <glyph glyph-name="lacute.ss02" horiz-adv-x="265" 
d="M98 0v705h70v-705h-70zM102 765l118 171h89l-146 -171h-61z" />
    <glyph glyph-name="lcaron.ss02" horiz-adv-x="265" 
d="M98 0v705h70v-705h-70zM217 515v190h65l-23 -190h-42z" />
    <glyph glyph-name="uni013C.ss02" horiz-adv-x="265" 
d="M98 0v705h70v-705h-70zM126 -283l-35 27q24 23 32.5 48t8.5 52l13 -10h-59v85h92v-66q0 -40 -12.5 -74t-39.5 -62z" />
    <glyph glyph-name="ldot.ss02" horiz-adv-x="320" 
d="M98 0v705h70v-705h-70zM246 316v83h93v-83h-93z" />
    <glyph glyph-name="uni1E37.ss02" horiz-adv-x="265" 
d="M98 0v705h70v-705h-70zM90 -183v83h84v-83h-84z" />
    <glyph glyph-name="uni01C9.ss02" horiz-adv-x="508" 
d="M98 0v705h70v-705h-70zM343 621v84h89v-84h-89zM209 -193l-5 61l49 6q48 5 74 30.5t26 80.5v509h70v-507q0 -41 -10.5 -71.5t-30.5 -52t-50 -34t-71 -17.5z" />
    <glyph glyph-name="uni1E3B.ss02" horiz-adv-x="265" 
d="M98 0v705h70v-705h-70zM-25 -157v57h314v-57h-314z" />
    <glyph glyph-name="lslash.ss02" horiz-adv-x="306" 
d="M119 0v705h70v-705h-70zM40 257l-30 52l256 149l30 -53z" />
    <glyph glyph-name="i_j.loclNLD" horiz-adv-x="508" 
d="M88 621v84h89v-84h-89zM98 0v494h70v-494h-70zM343 621v84h89v-84h-89zM209 -193l-5 61l49 6q48 5 74 30.5t26 80.5v509h70v-507q0 -41 -10.5 -71.5t-30.5 -52t-50 -34t-71 -17.5z" />
    <glyph glyph-name="fl.ss02" horiz-adv-x="658" 
d="M127 0v436h-104v58h121l-17 -17v31q0 93 53 142.5t152 55.5l49 2l6 -60l-58 -3q-35 -2 -65 -14t-48.5 -39.5t-18.5 -78.5v-29l-12 10h177v-58h-165v-436h-70zM491 0v705h70v-705h-70z" />
    <glyph glyph-name="ordfeminine" unicode="&#xaa;" horiz-adv-x="359" 
d="M153 387q-50 0 -82 27t-32 69q0 49 44 72t117 23h66v-40h-65q-35 0 -59.5 -6t-36.5 -18t-12 -31q0 -23 17.5 -37.5t52.5 -14.5q28 0 50 12t34.5 35t12.5 56v60q0 38 -20 55.5t-60 17.5q-30 0 -58.5 -8t-54.5 -23l-16 45q27 16 61.5 24t68.5 8q65 0 97.5 -30t32.5 -90
v-201h-50v58h-2q-18 -34 -44.5 -48.5t-61.5 -14.5z" />
    <glyph glyph-name="ordmasculine" unicode="&#xba;" horiz-adv-x="373" 
d="M186 387q-42 0 -77 20.5t-55.5 57.5t-20.5 86q0 48 20.5 84.5t55.5 57t77 20.5q43 0 78 -20.5t55.5 -57t20.5 -84.5q0 -49 -20.5 -86t-55.5 -57.5t-78 -20.5zM187 436q44 0 71 29.5t27 85.5q0 55 -27 84.5t-71 29.5q-45 0 -72 -29.5t-27 -84.5q0 -56 27 -85.5t72 -29.5z
" />
    <glyph glyph-name="uni0410" unicode="&#x410;" horiz-adv-x="764" 
d="M43 0l307 705h65l306 -705h-74l-87 202l39 -21h-433l38 21l-87 -202h-74zM380 619l-166 -390l-25 15h387l-27 -15l-165 390h-4z" />
    <glyph glyph-name="uni0411" unicode="&#x411;" horiz-adv-x="704" 
d="M113 0v705h463v-64h-393v-251h226q74 0 126 -21.5t80 -65t28 -107.5q0 -65 -28 -108.5t-80 -65.5t-126 -22h-296zM183 62h220q86 0 127 32t41 100q0 69 -42 101t-126 32h-220v-265z" />
    <glyph glyph-name="uni0412" unicode="&#x412;" horiz-adv-x="727" 
d="M113 0v705h285q109 0 168.5 -47t59.5 -138q0 -66 -34 -106t-84 -51v-2q35 -5 65.5 -25.5t50 -56.5t19.5 -86q0 -63 -27.5 -106t-80 -65t-126.5 -22h-296zM183 63h223q35 0 61.5 5t46 15.5t32.5 26.5t19.5 36t6.5 45q0 28 -7 49.5t-21 37.5t-33.5 26.5t-46 15.5t-58.5 5
h-223v-262zM183 388h208q82 0 123 33t41 99q0 61 -39.5 91.5t-124.5 30.5h-208v-254z" />
    <glyph glyph-name="uni0413" unicode="&#x413;" horiz-adv-x="594" 
d="M113 0v705h448v-64h-378v-641h-70z" />
    <glyph glyph-name="uni0403" unicode="&#x403;" horiz-adv-x="594" 
d="M113 0v705h448v-64h-378v-641h-70zM271 765l118 171h89l-146 -171h-61z" />
    <glyph glyph-name="uni0490" unicode="&#x490;" horiz-adv-x="595" 
d="M113 0v705h383v153h66v-217h-379v-641h-70z" />
    <glyph glyph-name="uni04F6" unicode="&#x4f6;" horiz-adv-x="594" 
d="M218 -151v151h-102v60h168v-211h-66zM113 0v705h448v-64h-378v-641h-70z" />
    <glyph glyph-name="uni0492" unicode="&#x492;" horiz-adv-x="603" 
d="M123 0v321h-106v61h106v323h447v-64h-377v-259h210v-62l-210 1v-321h-70z" />
    <glyph glyph-name="uni0494" unicode="&#x494;" horiz-adv-x="712" 
d="M443 -188q-36 0 -65.5 5.5t-50.5 15.5l15 59q20 -8 43 -12.5t52 -4.5q65 0 104.5 42.5t39.5 129.5v90q0 108 -56 168.5t-169 60.5q-33 0 -65 -5t-59.5 -14t-48.5 -23v-324h-70v705h456v-64h-386v-249q19 12 48 20.5t63 13t68 4.5q135 0 211.5 -72t76.5 -215v-95
q0 -76 -25.5 -129t-72 -80t-109.5 -27z" />
    <glyph glyph-name="uni0414" unicode="&#x414;" horiz-adv-x="804" 
d="M28 -155v219h70q38 48 61 115t33.5 152.5t10.5 189.5v184h469v-641h99v-219h-66v155h-611v-155h-66zM173 64h429v577h-333v-123q0 -109 -9.5 -192t-31 -147.5t-55.5 -114.5z" />
    <glyph glyph-name="uni0415" unicode="&#x415;" horiz-adv-x="646" 
d="M113 0v705h451v-64h-381v-252h361v-64h-361v-261h381v-64h-451z" />
    <glyph glyph-name="uni0400" unicode="&#x400;" horiz-adv-x="646" 
d="M113 0v705h451v-64h-381v-252h361v-64h-361v-261h381v-64h-451zM318 765l-146 171h87l118 -171h-59z" />
    <glyph glyph-name="uni0401" unicode="&#x401;" horiz-adv-x="646" 
d="M113 0v705h451v-64h-381v-252h361v-64h-361v-261h381v-64h-451zM400 809v80h82v-80h-82zM210 809v80h82v-80h-82z" />
    <glyph glyph-name="uni0416" unicode="&#x416;" horiz-adv-x="991" 
d="M20 0l118 242q21 43 47.5 74t60 49t72.5 22l-28 -24l-232 342h81l223 -332l-22 17h121v315h70v-315h122l-23 -17l222 332h81l-232 -342l-26 24q39 -4 71.5 -22t59 -48.5t46.5 -73.5l119 -243h-78l-100 208q-29 60 -67 89t-97 29h-98v-326h-70v326h-98q-57 0 -97 -27.5
t-70 -90.5l-98 -208h-78z" />
    <glyph glyph-name="uni0417" unicode="&#x417;" horiz-adv-x="680" 
d="M324 -8q-61 0 -114.5 10t-96 29.5t-70.5 47.5l28 58q48 -44 110.5 -62.5t139.5 -18.5q106 0 154.5 34.5t48.5 104.5q0 68 -42.5 99.5t-132.5 31.5h-182v63h166q88 0 131.5 32t43.5 94q0 64 -46.5 99t-140.5 35q-63 0 -124.5 -19t-109.5 -62l-28 59q33 29 76.5 48
t92.5 28.5t98 9.5q85 0 141 -23.5t84 -67t28 -102.5q0 -56 -29 -97.5t-86 -60.5v-1q62 -15 96.5 -58.5t34.5 -109.5q0 -63 -29 -108t-88.5 -69t-153.5 -24z" />
    <glyph glyph-name="uni0418" unicode="&#x418;" horiz-adv-x="812" 
d="M113 0v705h67v-600h1l451 600h67v-705h-68v600v0l-452 -600h-66z" />
    <glyph glyph-name="uni0419" unicode="&#x419;" horiz-adv-x="812" 
d="M113 0v705h67v-600h1l451 600h67v-705h-68v600v0l-452 -600h-66zM405 767q-43 0 -80.5 15t-65.5 45t-42 76l50 15q20 -52 55 -74t82 -22q51 0 84.5 21t61.5 74l48 -14q-28 -74 -79 -105t-114 -31z" />
    <glyph glyph-name="uni040D" unicode="&#x40d;" horiz-adv-x="812" 
d="M113 0v705h67v-600h1l451 600h67v-705h-68v600v0l-452 -600h-66zM379 765l-146 171h87l118 -171h-59z" />
    <glyph glyph-name="uni048A" unicode="&#x48a;" horiz-adv-x="825" 
d="M665 -151l52 151h-86v600l-1 -1l-451 -599h-66v705h67v-599l1 1l451 598h67v-645h102l-70 -211h-66zM405 767q-43 0 -80.5 15t-65.5 45t-42 76l50 15q20 -52 55 -74t82 -22q51 0 84.5 21t61.5 74l48 -14q-28 -74 -79.5 -105t-113.5 -31z" />
    <glyph glyph-name="uni041A" unicode="&#x41a;" horiz-adv-x="680" 
d="M113 0v705h70v-315h159l-23 -17l222 332h81l-232 -343l-27 25q40 -4 72 -22t58.5 -48.5t47.5 -73.5l119 -243h-79l-99 208q-29 60 -67 89t-97 29h-135v-326h-70z" />
    <glyph glyph-name="uni040C" unicode="&#x40c;" horiz-adv-x="680" 
d="M113 0v705h70v-315h159l-23 -17l222 332h81l-232 -343l-27 25q40 -4 72 -22t58.5 -48.5t47.5 -73.5l119 -243h-79l-99 208q-29 60 -67 89t-97 29h-135v-326h-70zM317 765l118 171h89l-146 -171h-61z" />
    <glyph glyph-name="uni041B" unicode="&#x41b;" horiz-adv-x="773" 
d="M52 -14l-32 56q42 22 74 55t53.5 84t32 127t10.5 185v212h470v-705h-70v641h-333v-165q0 -107 -12.5 -187.5t-37.5 -138.5t-63.5 -98t-91.5 -66z" />
    <glyph glyph-name="uni041C" unicode="&#x41c;" horiz-adv-x="914" 
d="M115 0v705h86l258 -517h-1l256 517h85v-705h-67v608v0l-247 -497h-54l-249 497v0v-608h-67z" />
    <glyph glyph-name="uni041D" unicode="&#x41d;" horiz-adv-x="803" 
d="M113 0v705h70v-315h437v315h70v-705h-70v326h-437v-326h-70z" />
    <glyph glyph-name="uni041E" unicode="&#x41e;" horiz-adv-x="807" 
d="M403 -8q-74 0 -133.5 24.5t-101.5 71.5t-64 113.5t-22 150.5q0 85 22 152t63.5 113.5t101 71t134.5 24.5q76 0 135.5 -24.5t101.5 -71t63.5 -113t21.5 -151.5q0 -84 -22 -151t-63.5 -114t-101 -71.5t-135.5 -24.5zM403 57q79 0 134.5 33.5t85 99.5t29.5 163t-29 162.5
t-85 99t-135 33.5q-78 0 -133.5 -33.5t-85 -99t-29.5 -162.5q0 -96 29.5 -162t85 -100t133.5 -34z" />
    <glyph glyph-name="uni041F" unicode="&#x41f;" horiz-adv-x="800" 
d="M113 0v705h574v-705h-70v641h-434v-641h-70z" />
    <glyph glyph-name="uni0420" unicode="&#x420;" horiz-adv-x="692" 
d="M113 0v705h280q75 0 127.5 -25t80.5 -71.5t28 -112.5q0 -65 -28 -112.5t-81 -72.5t-127 -25h-210v-286h-70zM183 348h201q86 0 130 37t44 111q0 75 -44 110.5t-130 35.5h-201v-294z" />
    <glyph glyph-name="uni0421" unicode="&#x421;" horiz-adv-x="711" 
d="M404 -9q-99 0 -171.5 43.5t-111.5 125t-39 193.5t39 193t111 124t172 43q74 0 134.5 -23t104.5 -68l-30 -55q-47 43 -96.5 62t-112.5 19q-117 0 -183 -75t-66 -220q0 -144 66 -220t183 -76q63 0 112.5 19t96.5 62l30 -55q-44 -45 -104.5 -68.5t-134.5 -23.5z" />
    <glyph glyph-name="uni0422" unicode="&#x422;" horiz-adv-x="640" 
d="M285 0v641h-259v64h588v-64h-259v-641h-70z" />
    <glyph glyph-name="uni0423" unicode="&#x423;" horiz-adv-x="640" 
d="M203 0l117 227l-1 -30l-317 508h78l266 -427h1l219 427h75l-362 -705h-76z" />
    <glyph glyph-name="uni040E" unicode="&#x40e;" horiz-adv-x="640" 
d="M203 0l117 227l-1 -30l-317 508h78l266 -427h1l219 427h75l-362 -705h-76zM319 767q-43 0 -80.5 15t-65.5 45t-42 76l50 15q20 -52 55 -74t82 -22q51 0 84.5 21t61.5 74l48 -14q-28 -74 -79 -105t-114 -31z" />
    <glyph glyph-name="uni0424" unicode="&#x424;" horiz-adv-x="923" 
d="M426 -23v121l20 -17h-25q-98 0 -174.5 30.5t-120.5 92.5t-44 154q0 94 43 155t120 91.5t176 30.5h25l-20 -17v115h71v-115l-20 17h24q101 0 177 -30.5t119.5 -91.5t43.5 -155q0 -92 -44.5 -154t-120.5 -92.5t-175 -30.5h-24l20 17v-121h-71zM426 122v472l19 -23h-35
q-70 0 -128.5 -21t-93 -67.5t-34.5 -124.5q0 -56 20.5 -97t56 -67t82 -38t97.5 -12h35zM496 122l-18 22h34q52 0 98.5 12t82 38t56 67t20.5 97q0 78 -35 124.5t-93 67.5t-129 21h-34l18 23v-472z" />
    <glyph glyph-name="uni0425" unicode="&#x425;" horiz-adv-x="671" 
d="M32 0l258 374l1 -23l-244 354h81l207 -301h1l208 301h81l-246 -354v24l260 -375h-82l-223 323v0l-221 -323h-81z" />
    <glyph glyph-name="uni0427" unicode="&#x427;" horiz-adv-x="726" 
d="M543 0v304q-21 -12 -52.5 -20.5t-66.5 -13t-69 -4.5q-132 0 -206.5 72.5t-74.5 215.5v151h71v-145q0 -118 57 -173.5t159 -55.5q45 0 93.5 9t88.5 33v332h70v-705h-70z" />
    <glyph glyph-name="uni0426" unicode="&#x426;" horiz-adv-x="821" 
d="M722 -155v155h-609v705h70v-641h433v641h71v-644h101v-216h-66z" />
    <glyph glyph-name="uni0428" unicode="&#x428;" horiz-adv-x="1097" 
d="M113 0v705h70v-641h330v641h70v-641h331v641h70v-705h-871z" />
    <glyph glyph-name="uni0429" unicode="&#x429;" horiz-adv-x="1116" 
d="M1017 -155v155h-904v705h70v-641h330v641h70v-641h331v641h70v-645h99v-215h-66z" />
    <glyph glyph-name="uni040F" unicode="&#x40f;" horiz-adv-x="799" 
d="M367 -155v155h-254v705h70v-641h433v641h70v-705h-253v-155h-66z" />
    <glyph glyph-name="uni042C" unicode="&#x42c;" horiz-adv-x="707" 
d="M113 0v705h70v-314h226q74 0 126 -21.5t80 -65t28 -107.5q0 -65 -28 -108.5t-80 -66t-126 -22.5h-296zM183 63h220q86 0 127 32t41 100q0 70 -42 101.5t-126 31.5h-220v-265z" />
    <glyph glyph-name="uni042B" unicode="&#x42b;" horiz-adv-x="912" 
d="M113 0v705h70v-314h211q73 0 125.5 -21.5t80 -65t27.5 -107.5q0 -65 -27.5 -108.5t-80 -66t-125.5 -22.5h-281zM183 63h204q86 0 127 32t41 100q0 70 -42 101.5t-126 31.5h-204v-265zM729 0v705h70v-705h-70z" />
    <glyph glyph-name="uni042A" unicode="&#x42a;" horiz-adv-x="845" 
d="M258 0v641h-232v64h303v-314h219q74 0 126 -21.5t79.5 -64.5t27.5 -108q0 -64 -27.5 -108t-79.5 -66.5t-126 -22.5h-290zM329 63h212q85 0 127 32t42 101q0 70 -42.5 101t-126.5 31h-212v-265z" />
    <glyph glyph-name="uni0409" unicode="&#x409;" horiz-adv-x="1158" 
d="M52 -14l-32 56q42 22 74 55t53.5 84t32 127t10.5 185v212h452v-314h219q73 0 125.5 -21.5t80 -65t27.5 -107.5q0 -65 -27.5 -108.5t-80 -66t-125.5 -22.5h-289v641h-315v-165q0 -107 -12.5 -187.5t-37.5 -138.5t-63.5 -98t-91.5 -66zM642 63h212q86 0 127.5 32t41.5 100
q0 70 -42.5 101.5t-126.5 31.5h-212v-265z" />
    <glyph glyph-name="uni040A" unicode="&#x40a;" horiz-adv-x="1191" 
d="M113 0v705h70v-313h422v313h71v-312h218q74 0 126 -22t79.5 -65t27.5 -108t-27.5 -109t-79.5 -66.5t-126 -22.5h-289v328h-422v-328h-70zM676 63h211q87 0 128 32.5t41 101.5t-42.5 101t-125.5 32h-212v-267z" />
    <glyph glyph-name="uni0405" unicode="&#x405;" horiz-adv-x="657" 
d="M344 -8q-59 0 -111 8.5t-95 27.5t-74 47l28 59q36 -30 74.5 -47t83 -23.5t94.5 -6.5q85 0 133 36t48 100q0 33 -15.5 55t-48.5 36t-85 24l-117 24q-96 19 -137.5 65.5t-41.5 117.5q0 60 34.5 104.5t95 69t137.5 24.5q50 0 93 -9.5t78.5 -29t64.5 -48.5l-29 -59
q-44 45 -94.5 63t-113.5 18q-55 0 -99.5 -15.5t-70.5 -45t-26 -74.5q0 -47 29.5 -75t100.5 -42l116 -22q103 -21 151 -65t48 -114q0 -58 -31 -104.5t-87.5 -72.5t-132.5 -26z" />
    <glyph glyph-name="uni0404" unicode="&#x404;" horiz-adv-x="713" 
d="M406 -8q-100 0 -173 43.5t-112 124.5t-39 193t39 193t111.5 124t173.5 43q73 0 132.5 -22.5t106.5 -67.5l-29 -55q-48 42 -98 61t-113 19q-117 0 -182 -72.5t-67 -209.5l-25 23h405v-63h-406l25 23q1 -143 66.5 -217.5t183.5 -74.5q63 0 113 18.5t98 61.5l29 -55
q-47 -45 -106.5 -67.5t-132.5 -22.5z" />
    <glyph glyph-name="uni042D" unicode="&#x42d;" horiz-adv-x="713" 
d="M307 -8q-72 0 -132 22.5t-108 67.5l30 55q48 -42 98.5 -61t112.5 -19q117 0 183 74.5t66 216.5l25 -22h-405v63h405l-25 -25q-2 141 -66 212.5t-181 71.5q-63 0 -114 -20t-99 -60l-30 54q48 44 108.5 67.5t133.5 23.5q101 0 173 -42.5t110.5 -123t38.5 -194.5
q0 -113 -39.5 -194t-111.5 -124t-173 -43z" />
    <glyph glyph-name="uni0406" unicode="&#x406;" horiz-adv-x="296" 
d="M113 0v705h70v-705h-70z" />
    <glyph glyph-name="uni0407" unicode="&#x407;" horiz-adv-x="296" 
d="M113 0v705h70v-705h-70zM202 809v80h82v-80h-82zM12 809v80h82v-80h-82z" />
    <glyph glyph-name="uni0408" unicode="&#x408;" horiz-adv-x="394" 
d="M12 -7l-5 64l79 4q36 2 64 18.5t44.5 46t16.5 67.5v512h70v-516q0 -53 -24.5 -95.5t-67 -67.5t-96.5 -29z" />
    <glyph glyph-name="uni040B" unicode="&#x40b;" horiz-adv-x="891" 
d="M285 0v641h-259v64h588v-64h-259v-249q22 12 54 20.5t67 13t67 4.5q88 0 152.5 -32t99.5 -96t35 -158v-144h-71v138q0 117 -60 172.5t-161 55.5q-46 0 -95.5 -10.5t-87.5 -31.5v-324h-70z" />
    <glyph glyph-name="uni042E" unicode="&#x42e;" horiz-adv-x="1053" 
d="M658 -8q-90 0 -158 40.5t-107.5 115.5t-44.5 179h-164v-327h-71v705h71v-316h164q8 101 47 173.5t106 111.5t158 39q96 0 166 -43.5t108 -124t38 -192.5q0 -84 -22 -150.5t-63 -113.5t-98 -72t-130 -25zM659 56q76 0 129 35.5t81 101.5t28 160q0 141 -62 218.5t-176 77.5
q-75 0 -128.5 -35t-81.5 -101t-28 -160q0 -141 62.5 -219t175.5 -78z" />
    <glyph glyph-name="uni042F" unicode="&#x42f;" horiz-adv-x="726" 
d="M68 0l126 238q19 34 34 50t34 21l8 2l-1 2q-52 6 -90.5 30.5t-59.5 66t-21 96.5q0 98 61 148.5t172 50.5h282v-705h-70v299h-145q-36 0 -60 -6t-41 -22.5t-33 -47.5l-118 -223h-78zM333 361h210v281h-205q-87 0 -128 -32t-41 -105t39 -108.5t125 -35.5z" />
    <glyph glyph-name="uni0402" unicode="&#x402;" horiz-adv-x="884" 
d="M615 -188q-35 0 -65 5.5t-51 15.5l15 59q20 -7 42.5 -12t51.5 -5q65 0 104.5 42.5t39.5 129.5v90q0 108 -55.5 168.5t-168.5 60.5q-33 0 -65 -5t-59.5 -14t-48.5 -23v-324h-70v641h-259v64h587v-64h-258v-249q19 12 48 20.5t63.5 13t67.5 4.5q135 0 211.5 -72t76.5 -215
v-95q0 -76 -25.5 -129t-72 -80t-109.5 -27z" />
    <glyph glyph-name="uni0462" unicode="&#x462;" horiz-adv-x="774" 
d="M180 0v535h-166v62h166v108h70v-108h257v-62h-257v-148h226q74 0 126 -21t80 -64t28 -108q0 -64 -27.5 -107t-80 -65t-126.5 -22h-296zM250 62h220q86 0 127 32t41 99q0 69 -42 100.5t-126 31.5h-220v-263z" />
    <glyph glyph-name="uni046A" unicode="&#x46a;" horiz-adv-x="990" 
d="M20 0l118 243q24 48 55.5 80t76 48.5t102.5 16.5h70l-7 -28l-310 345h738l-309 -345l-8 28h72q59 0 103 -16.5t76 -48.5t55 -80l118 -243h-78l-99 208q-29 63 -68.5 90.5t-97.5 27.5h-97v-326h-70v326h-97q-58 0 -97 -27.5t-69 -90.5l-99 -208h-78zM493 385h3l265 296
l10 -38h-553l10 38z" />
    <glyph glyph-name="uni0472" unicode="&#x472;" horiz-adv-x="807" 
d="M133 333v58h564v-58h-564zM403 -8q-74 0 -133.5 24.5t-101.5 71.5t-64 113.5t-22 150.5q0 85 22 152t63.5 113.5t101 71t134.5 24.5q76 0 135.5 -24.5t101.5 -71t63.5 -113t21.5 -151.5q0 -84 -22 -151t-63.5 -114t-101 -71.5t-135.5 -24.5zM403 57q79 0 134.5 33.5
t85 99.5t29.5 163t-29 162.5t-85 99t-135 33.5q-78 0 -133.5 -33.5t-85 -99t-29.5 -162.5q0 -96 29.5 -162t85 -100t133.5 -34z" />
    <glyph glyph-name="uni0474" unicode="&#x474;" horiz-adv-x="758" 
d="M309 0l-302 705h76l259 -617h-1l182 439q21 48 42.5 83.5t49 58t63.5 33.5t85 11l6 -63q-45 0 -76 -11t-55 -41t-48 -88l-217 -510h-64z" />
    <glyph glyph-name="uni0496" unicode="&#x496;" horiz-adv-x="995" 
d="M956 -151v151h-43v60h108v-211h-65zM20 0l118 242q21 43 47.5 74t60 49t72.5 22l-28 -24l-232 342h81l223 -332l-22 17h121v315h70v-315h122l-23 -17l222 332h81l-232 -342l-26 24q39 -4 71.5 -22t59 -48.5t46.5 -73.5l119 -243h-78l-100 208q-29 60 -67 89t-97 29h-98
v-326h-70v326h-98q-57 0 -97 -27.5t-70 -90.5l-98 -208h-78z" />
    <glyph glyph-name="uni0498" unicode="&#x498;" horiz-adv-x="680" 
d="M291 -166v159q-81 3 -145.5 25.5t-102.5 60.5l28 58q48 -44 110.5 -62.5t139.5 -18.5q106 0 154.5 34.5t48.5 104.5q0 68 -42.5 99.5t-132.5 31.5h-182v63h166q88 0 131.5 32t43.5 94q0 64 -46.5 99t-140.5 35q-63 0 -124.5 -19t-109.5 -62l-28 59q33 29 76.5 48
t92.5 28.5t98 9.5q85 0 141 -23.5t84 -67t28 -102.5q0 -56 -28.5 -97t-84.5 -61v-2q61 -15 95 -58t34 -109q0 -88 -57.5 -141t-180.5 -60v-158h-66z" />
    <glyph glyph-name="uni049A" unicode="&#x49a;" horiz-adv-x="687" 
d="M644 -151v151h-43v60h108v-211h-65zM113 0v705h70v-315h159l-23 -17l222 332h81l-232 -343l-27 25q40 -4 72 -22t58.5 -48.5t47.5 -73.5l119 -243h-79l-99 208q-29 60 -67 89t-97 29h-135v-326h-70z" />
    <glyph glyph-name="uni049C" unicode="&#x49c;" horiz-adv-x="709" 
d="M113 0v705h70v-316h86v167h59v-167h31l211 316h81l-231 -343l-22 20q38 -3 69.5 -20t56.5 -46.5t46 -72.5l119 -243h-79l-99 208q-29 59 -67 88.5t-97 29.5h-28l9 10v-178h-59v168h-86v-326h-70z" />
    </font>
</defs>
</svg>
